Поиск

(Latin Jazz, Bossa Nova) Antonio Carlos Jobim — The Man From Ipanema (3 CD) — 1995, FLAC (image+.cue), lossless

(Latin Jazz, Bossa Nova) Antonio Carlos Jobim — The Man From Ipanema (3 CD) — 1995, FLAC (image+.cue), lossless
Antonio Carlos Jobim – The Man From Ipanema (3 CD)

Жанр: Latin Jazz, Bossa Nova
Год издания диска: 1995
Издатель (лейбл): Polygram
Номер по каталогу: 31452 58802
Аудиокодек: FLAC (*.flac)
Тип рипа: image+.cue
Битрейт аудио: lossless
Продолжительность: 74:49 / 52:14 / 64:19
Источник (релизер): bINkI
Наличие сканов в содержимом раздачи: да 
 
 
 
CD 1
Треклист:
01. Passarim (3:40)
02. Só Danço Samba (3:39)
03. Águas De Março (3:33)
04. Amor Em Paz (2:12)
05. Lamento (2:42)
06. Luiza (2:33)
07. Chovendo Na Roseira (3:12)
08. Anos Dourados (3:47)
09. O Grande Amor (5:28)
10. Água De Beber (2:19)
11. Modinha (2:18)
12. Borzeguim (4:24)
13. Soneto Da Separação (2:21)
14. Gabriela (7:59)
15. Retrato Em Preto E Branco (3:08)
16. Dindi (2:42)
17. Inútil Paisagem (3:12)
18. Photograph (2:14)
19. Chansong (3:21)
20. Meditation (2:42)
21. O Que Tinha De Ser (1:44)
22. O Morro Não Tem Vez (2:59)
23. Bonita (2:40)
 
Лог создания рипа
Exact Audio Copy V0.99 prebeta 4 from 23. January 2008
EAC extraction logfile from 25. August 2009, 14:02
Antonio Carlos Jobim / The Man From Ipanema
Used drive : HL-DT-STDVD-RAM GH22NP20 Adapter: 1 ID: 1
Read mode : Secure
Utilize accurate stream : Yes
Defeat audio cache : Yes
Make use of C2 pointers : No
Read offset correction : 102
Overread into Lead-In and Lead-Out : No
Fill up missing offset samples with silence : Yes
Delete leading and trailing silent blocks : No
Null samples used in CRC calculations : Yes
Used interface : Installed external ASPI interface
Used output format : Internal WAV Routines
Sample format : 44.100 Hz; 16 Bit; Stereo
Use compression offset : 102
TOC of the extracted CD
Track | Start | Length | Start sector | End sector
---------------------------------------------------------
1 | 0:00.00 | 3:39.50 | 0 | 16474
2 | 3:39.50 | 3:38.47 | 16475 | 32871
3 | 7:18.22 | 3:32.40 | 32872 | 48811
4 | 10:50.62 | 2:12.35 | 48812 | 58746
5 | 13:03.22 | 2:42.18 | 58747 | 70914
6 | 15:45.40 | 2:33.27 | 70915 | 82416
7 | 18:18.67 | 3:11.63 | 82417 | 96804
8 | 21:30.55 | 3:47.02 | 96805 | 113831
9 | 25:17.57 | 5:27.38 | 113832 | 138394
10 | 30:45.20 | 2:18.70 | 138395 | 148814
11 | 33:04.15 | 2:17.60 | 148815 | 159149
12 | 35:22.00 | 4:24.20 | 159150 | 178969
13 | 39:46.20 | 2:21.30 | 178970 | 189574
14 | 42:07.50 | 7:58.42 | 189575 | 225466
15 | 50:06.17 | 3:08.33 | 225467 | 239599
16 | 53:14.50 | 2:42.05 | 239600 | 251754
17 | 55:56.55 | 3:12.15 | 251755 | 266169
18 | 59:08.70 | 2:14.37 | 266170 | 276256
19 | 61:23.32 | 3:20.50 | 276257 | 291306
20 | 64:44.07 | 2:41.68 | 291307 | 303449
21 | 67:26.00 | 1:43.72 | 303450 | 311246
22 | 69:09.72 | 2:58.48 | 311247 | 324644
23 | 72:08.45 | 2:40.12 | 324645 | 336656
Range status and errors
Selected range
Filename C:\Documents and Settings\Proprietario.RT\Desktop\Andrea\Antonio Carlos Jobim - The Man From Ipanema.wav
Peak level 100.0 %
Range quality 100.0 %
Test CRC B1102484
Copy CRC B1102484
Copy OK
No errors occurred
End of status report
 
Содержание индексной карты (.CUE)
REM GENRE Jazz
REM DATE 1995
REM DISCID 53118817
REM COMMENT ExactAudioCopy v0.99pb4
CATALOG 0731452588029
PERFORMER "Antonio Carlos Jobim"
TITLE "The Man From Ipanema (disc 1)"
FILE "Antonio Carlos Jobim - The Man From Ipanema (disc 1).flac" WAVE
TRACK 01 AUDIO
TITLE "Passarim"
ISRC USPR38605203
INDEX 01 00:00:00
TRACK 02 AUDIO
TITLE "So Danco Samba"
ISRC USPR36301940
INDEX 00 03:37:65
INDEX 01 03:39:50
TRACK 03 AUDIO
TITLE "Aguas De Marco"
ISRC USPR37400056
INDEX 00 07:16:40
INDEX 01 07:18:22
TRACK 04 AUDIO
TITLE "Amor Em Paz"
ISRC USPR36507096
INDEX 00 10:50:20
INDEX 01 10:50:62
TRACK 05 AUDIO
TITLE "Lamento"
ISRC USPR36702780
INDEX 00 13:01:37
INDEX 01 13:03:22
TRACK 06 AUDIO
TITLE "Luiza"
ISRC USPR38605204
INDEX 00 15:43:57
INDEX 01 15:45:40
TRACK 07 AUDIO
TITLE "Chovendo Na Roseira"
ISRC USPR37400057
INDEX 00 18:17:07
INDEX 01 18:18:67
TRACK 08 AUDIO
TITLE "Anos Dourados"
ISRC USPR38605205
INDEX 00 21:28:67
INDEX 01 21:30:55
TRACK 09 AUDIO
TITLE "O Grande Amor"
ISRC USPR36301942
INDEX 00 25:16:10
INDEX 01 25:17:57
TRACK 10 AUDIO
TITLE "Agua De Beber"
ISRC USPR36507097
INDEX 00 30:43:37
INDEX 01 30:45:20
TRACK 11 AUDIO
TITLE "Modinha"
ISRC USPR37407133
INDEX 00 33:02:32
INDEX 01 33:04:15
TRACK 12 AUDIO
TITLE "Borzeguim"
ISRC USPR38600125
INDEX 00 35:21:12
INDEX 01 35:22:00
TRACK 13 AUDIO
TITLE "Soneto Da Separacao"
ISRC USPR37407134
INDEX 00 39:45:32
INDEX 01 39:46:20
TRACK 14 AUDIO
TITLE "Gabriela"
ISRC USPR38605206
INDEX 00 42:05:65
INDEX 01 42:07:50
TRACK 15 AUDIO
TITLE "Retrato Em Preto E Branco"
ISRC USPR37407135
INDEX 00 50:04:32
INDEX 01 50:06:17
TRACK 16 AUDIO
TITLE "Dindi"
ISRC USPR36507098
INDEX 00 53:12:65
INDEX 01 53:14:50
TRACK 17 AUDIO
TITLE "Inutil Paisagem"
ISRC USPR37400058
INDEX 00 55:54:72
INDEX 01 55:56:55
TRACK 18 AUDIO
TITLE "Photograph"
ISRC USPR36507099
INDEX 00 59:07:10
INDEX 01 59:08:70
TRACK 19 AUDIO
TITLE "Chansong"
ISRC USPR38605207
INDEX 00 61:21:50
INDEX 01 61:23:32
TRACK 20 AUDIO
TITLE "Meditation"
ISRC USPR36507100
INDEX 00 64:43:17
INDEX 01 64:44:07
TRACK 21 AUDIO
TITLE "O Que Tinha De Ser"
ISRC USPR37407136
INDEX 00 67:24:15
INDEX 01 67:26:00
TRACK 22 AUDIO
TITLE "O Morro Nao Tem Vez"
ISRC USPR36507101
INDEX 01 69:09:72
TRACK 23 AUDIO
TITLE "Bonita"
ISRC USPR37407137
INDEX 00 72:05:65
INDEX 01 72:08:45
 
CD 2
Треклист:
01. Wave (2:53)
02. Tide (3:42)
03. Amor Em Paz (O Morro) (3:37)
04. Chega De Saudade (4:21)
05. Sue Ann (3:07)
06. Samba De Uma Nota Só (2:17)
07. Mojave (2:22)
08. O Morro Não Tem Vez (3:22)
09. Tema Jazz (4:33)
10. Meditation (3:17)
11. Triste (2:05)
12. Água De Beber (2:53)
13. Só Danço Samba (2:23)
14. Captain Bacardi (4:30)
15. O Morro Não Tem Vez (Stan Getz) (6:52)
 
Лог создания рипа
Exact Audio Copy V0.99 prebeta 4 from 23. January 2008
EAC extraction logfile from 25. August 2009, 14:49
Antonio Carlos Jobim / The Man From Ipanema
Used drive : HL-DT-STDVD-RAM GH22NP20 Adapter: 1 ID: 1
Read mode : Secure
Utilize accurate stream : Yes
Defeat audio cache : Yes
Make use of C2 pointers : No
Read offset correction : 102
Overread into Lead-In and Lead-Out : No
Fill up missing offset samples with silence : Yes
Delete leading and trailing silent blocks : No
Null samples used in CRC calculations : Yes
Used interface : Installed external ASPI interface
Used output format : Internal WAV Routines
Sample format : 44.100 Hz; 16 Bit; Stereo
Use compression offset : 102
TOC of the extracted CD
Track | Start | Length | Start sector | End sector
---------------------------------------------------------
1 | 0:00.00 | 2:53.35 | 0 | 13009
2 | 2:53.35 | 3:41.70 | 13010 | 29654
3 | 6:35.30 | 3:36.52 | 29655 | 45906
4 | 10:12.07 | 4:20.48 | 45907 | 65454
5 | 14:32.55 | 3:07.02 | 65455 | 79481
6 | 17:39.57 | 2:17.20 | 79482 | 89776
7 | 19:57.02 | 2:22.10 | 89777 | 100436
8 | 22:19.12 | 3:22.30 | 100437 | 115616
9 | 25:41.42 | 4:32.58 | 115617 | 136074
10 | 30:14.25 | 3:17.37 | 136075 | 150886
11 | 33:31.62 | 2:04.55 | 150887 | 160241
12 | 35:36.42 | 2:52.50 | 160242 | 173191
13 | 38:29.17 | 2:22.50 | 173192 | 183891
14 | 40:51.67 | 4:30.10 | 183892 | 204151
15 | 45:22.02 | 6:52.05 | 204152 | 235056
Range status and errors
Selected range
Filename C:\Documents and Settings\Proprietario.RT\Desktop\Andrea\ACJ\Cd 2\Antonio Carlos Jobim - The Man From Ipanema.wav
Peak level 99.9 %
Range quality 100.0 %
Test CRC 2132C494
Copy CRC 2132C494
Copy OK
No errors occurred
End of status report
 
Содержание индексной карты (.CUE)
REM GENRE Jazz
REM DATE 1995
REM DISCID BA0C3E0F
REM COMMENT ExactAudioCopy v0.99pb4
CATALOG 0731452588029
PERFORMER "Antonio Carlos Jobim"
TITLE "The Man From Ipanema (disc 2)"
FILE "Antonio Carlos Jobim - The Man From Ipanema (disc 2).flac" WAVE
TRACK 01 AUDIO
TITLE "Wave"
ISRC USPR36707108
INDEX 01 00:00:00
TRACK 02 AUDIO
TITLE "Tide"
ISRC USPR37007125
INDEX 00 02:50:47
INDEX 01 02:53:35
TRACK 03 AUDIO
TITLE "Amor Em Paz (O Morro)"
ISRC USPR36507101
INDEX 00 06:32:40
INDEX 01 06:35:30
TRACK 04 AUDIO
TITLE "Chega De Saudade"
ISRC USPR36307065
INDEX 00 10:09:20
INDEX 01 10:12:07
TRACK 05 AUDIO
TITLE "Sue Ann"
ISRC USPR37007126
INDEX 00 14:29:65
INDEX 01 14:32:55
TRACK 06 AUDIO
TITLE "Samba De Uma Nota So"
ISRC USPR36307066
INDEX 00 17:36:70
INDEX 01 17:39:57
TRACK 07 AUDIO
TITLE "Mojave"
ISRC USPR36707109
INDEX 00 19:54:15
INDEX 01 19:57:02
TRACK 08 AUDIO
TITLE "O Morro Nao Tem Vez"
ISRC USPR36301944
INDEX 00 22:16:24
INDEX 01 22:19:12
TRACK 09 AUDIO
TITLE "Tema Jazz"
ISRC USPR37007127
INDEX 00 25:38:52
INDEX 01 25:41:42
TRACK 10 AUDIO
TITLE "Meditation"
ISRC USPR36307067
INDEX 00 30:11:35
INDEX 01 30:14:25
TRACK 11 AUDIO
TITLE "Triste"
ISRC USPR36707110
INDEX 00 33:29:00
INDEX 01 33:31:62
TRACK 12 AUDIO
TITLE "Agua De Beber"
ISRC USPR36301943
INDEX 00 35:33:52
INDEX 01 35:36:42
TRACK 13 AUDIO
TITLE "So Danco Samba"
ISRC USPR36307068
INDEX 00 38:26:27
INDEX 01 38:29:17
TRACK 14 AUDIO
TITLE "Captain Bacardi"
ISRC USPR36707111
INDEX 00 40:49:02
INDEX 01 40:51:67
TRACK 15 AUDIO
TITLE "O Morro Nao Tem Vez (Stan Getz)"
ISRC USPR36307069
INDEX 00 45:19:15
INDEX 01 45:22:02
 
CD 3
Треклист:
01. Desafinado (2:46)
02. Desafinado(Stan Getz, Joo Gilberto) (4:14)
03. Desafinado (Tom Jobim) (5:10)
04. The Girl From Ipanema (2:42)
05. The Girl From Ipanema (Astrud Gilberto) - Stan Getz (5:23)
06. The Girl From Ipanema (Ron Carter, Jerry Dogion) (4:45)
07. The Girl From Ipanema (Tom Em Pianos E Vocals) (3:02)
08. Corocovado (2:28)
09. Corcovado (Quiet Nights of Quiet Stars) (Astrud Gilberto) - Stan Getz (4:15)
10. Corcovado (Elis Regina) (3:53)
11. Insensatez (2:54)
12. Insensatez (Astrud Gilberto E Tom) (2:48)
13. Insensatez (Stan Getz, Luiz Bonf) (3:22)
14. Insensatez (Pat Metheny) (4:02)
15. Vivo Sonhando (2:38)
16. Vivo Sonhando (Dreamer) - Stan Gezt (2:55)
17. Vivo Sonhando (Stu Wllliamson, Creed Taylor, Shank) Astrud Gilberto (7:01)
 
Лог создания рипа
Exact Audio Copy V0.99 prebeta 4 from 23. January 2008
EAC extraction logfile from 25. August 2009, 15:52
Antonio Carlos Jobim / The Man From Ipanema
Used drive : HL-DT-STDVD-RAM GH22NP20 Adapter: 1 ID: 1
Read mode : Secure
Utilize accurate stream : Yes
Defeat audio cache : Yes
Make use of C2 pointers : No
Read offset correction : 102
Overread into Lead-In and Lead-Out : No
Fill up missing offset samples with silence : Yes
Delete leading and trailing silent blocks : No
Null samples used in CRC calculations : Yes
Used interface : Installed external ASPI interface
Used output format : Internal WAV Routines
Sample format : 44.100 Hz; 16 Bit; Stereo
Use compression offset : 102
TOC of the extracted CD
Track | Start | Length | Start sector | End sector
---------------------------------------------------------
1 | 0:00.00 | 2:46.32 | 0 | 12481
2 | 2:46.32 | 4:13.50 | 12482 | 31506
3 | 7:00.07 | 5:10.25 | 31507 | 54781
4 | 12:10.32 | 2:41.50 | 54782 | 66906
5 | 14:52.07 | 5:23.18 | 66907 | 91149
6 | 20:15.25 | 4:45.15 | 91150 | 112539
7 | 25:00.40 | 3:01.47 | 112540 | 126161
8 | 28:02.12 | 2:27.50 | 126162 | 137236
9 | 30:29.62 | 4:15.15 | 137237 | 156376
10 | 34:45.02 | 3:53.23 | 156377 | 173874
11 | 38:38.25 | 2:54.32 | 173875 | 186956
12 | 41:32.57 | 2:48.30 | 186957 | 199586
13 | 44:21.12 | 3:22.18 | 199587 | 214754
14 | 47:43.30 | 4:01.52 | 214755 | 232881
15 | 51:45.07 | 2:37.70 | 232882 | 244726
16 | 54:23.02 | 2:54.60 | 244727 | 257836
17 | 57:17.62 | 7:00.55 | 257837 | 289391
Range status and errors
Selected range
Filename C:\Documents and Settings\Proprietario.RT\Desktop\Andrea\ACJ\Nuova cartella\Antonio Carlos Jobim - The Man From Ipanema.wav
Peak level 100.0 %
Range quality 99.9 %
Test CRC 3D9E443C
Copy CRC 3D9E443C
Copy OK
No errors occurred
End of status report
 
Содержание индексной карты (.CUE)
REM GENRE Jazz
REM DATE 1995
REM DISCID EC0F1211
REM COMMENT ExactAudioCopy v0.99pb4
CATALOG 0731452588029
PERFORMER "Antonio Carlos Jobim"
TITLE "The Man From Ipanema (disc 3)"
FILE "Antonio Carlos Jobim - The Man From Ipanema (disc 3).flac" WAVE
TRACK 01 AUDIO
TITLE "Desafinado"
ISRC USPR36307070
INDEX 01 00:00:00
TRACK 02 AUDIO
TITLE "Desafinado(Stan Getz, Joo Gilberto)"
ISRC USPR36307071
INDEX 00 02:43:45
INDEX 01 02:46:32
TRACK 03 AUDIO
TITLE "Desafinado (Tom Jobim)"
ISRC USPR39405264
INDEX 00 06:57:17
INDEX 01 07:00:07
TRACK 04 AUDIO
TITLE "The Girl From Ipanema"
ISRC USPR36307072
INDEX 00 12:08:45
INDEX 01 12:10:32
TRACK 05 AUDIO
TITLE "The Girl From Ipanema (Astrud Gilberto) - Stan Getz"
ISRC USPR36307073
INDEX 00 14:50:42
INDEX 01 14:52:07
TRACK 06 AUDIO
TITLE "The Girl From Ipanema (Ron Carter, Jerry Dogion)"
ISRC USPR37007128
INDEX 00 20:13:37
INDEX 01 20:15:25
TRACK 07 AUDIO
TITLE "The Girl From Ipanema (Tom Em Pianos E Vocals)"
ISRC USPR39405265
INDEX 00 24:58:50
INDEX 01 25:00:40
TRACK 08 AUDIO
TITLE "Corocovado "
ISRC USPR36301938
INDEX 00 28:00:22
INDEX 01 28:02:12
TRACK 09 AUDIO
TITLE "Corcovado (Quiet Nights of Quiet Stars) (Astrud Gilberto) - Stan Getz"
ISRC USPR36307074
INDEX 00 30:28:10
INDEX 01 30:29:62
TRACK 10 AUDIO
TITLE "Corcovado (Elis Regina)"
ISRC USPR37407138
INDEX 00 34:43:57
INDEX 01 34:45:02
TRACK 11 AUDIO
TITLE "Insensatez "
ISRC USPR36301945
INDEX 00 38:36:67
INDEX 01 38:38:25
TRACK 12 AUDIO
TITLE "Insensatez (Astrud Gilberto E Tom)"
ISRC USPR36507102
INDEX 00 41:31:42
INDEX 01 41:32:57
TRACK 13 AUDIO
TITLE "Insensatez (Stan Getz, Luiz Bonf)"
ISRC USPR36307075
INDEX 00 44:19:25
INDEX 01 44:21:12
TRACK 14 AUDIO
TITLE "Insensatez (Pat Metheny)"
ISRC USPR39405266
INDEX 00 47:41:40
INDEX 01 47:43:30
TRACK 15 AUDIO
TITLE "Vivo Sonhando"
ISRC USPR36301939
INDEX 00 51:43:17
INDEX 01 51:45:07
TRACK 16 AUDIO
TITLE "Vivo Sonhando (Dreamer) - Stan Gezt"
ISRC USPR36307077
INDEX 00 54:20:52
INDEX 01 54:23:02
TRACK 17 AUDIO
TITLE "Vivo Sonhando (Stu Wllliamson, Creed Taylor, Shank) Astrud Gilberto"
ISRC USPR36507103
INDEX 00 57:15:67
INDEX 01 57:17:62
01:25
562
Нет комментариев. Ваш будет первым!