Поиск

(Latin Jazz, Bossa Nova) Antonio Carlos Jobim - Personalidade - 1993, FLAC (tracks+.cue), lossless

(Latin Jazz, Bossa Nova) Antonio Carlos Jobim - Personalidade - 1993, FLAC (tracks+.cue), lossless
Треклист:
Antonio Carlos Jobim – Personalidade
Жанр: Latin Jazz, Bossa Nova
Год издания: 1993
Издатель (лейбл): Verve
Аудиокодек: FLAC (*.flac)
Тип рипа: tracks+.cue
Битрейт аудио: lossless
Продолжительность: 48:21
Источник (релизер): What.cd (multimedialeech)
Сканов нет
Треклист:
01. Samba Do Avião (2:14)
02. Vivo Sonhando (Instrumental) (2:37)
03. Ana Luiza (5:23)
04. Água De Beber (Instrumental) (2:49)
05. A Felicidade (2:03)
06. Desafinado (Instrumental) (2:47)
07. Águas De Março (3:33)
08. Insensatez (Instrumental) (2:55)
09. Garota De Ipanema (2:40)
10. O Morro Não Tem Vez (2:36)
11. Chega De Saudade (Instrumental) (4:23)
12. Ela É Carioca (2:38)
13. Meditação (Instrumental) (3:18)
14. Só Tinha Qhe Ser Com Você (2:28)
15. Nuvens Douradas (Instrumental) (3:19)
16. Dindi (2:38)
 
 
Лог создания рипа
Exact Audio Copy V1.0 beta 1 from 15. November 2010
EAC extraction logfile from 7. February 2011, 21:49
Antonio Carlos Jobim / Personalidade
Used drive : ATAPI iHAS324 B Adapter: 3 ID: 1
Read mode : Secure
Utilize accurate stream : Yes
Defeat audio cache : Yes
Make use of C2 pointers : No
Read offset correction : 6
Overread into Lead-In and Lead-Out : No
Fill up missing offset samples with silence : Yes
Delete leading and trailing silent blocks : No
Null samples used in CRC calculations : Yes
Used interface : Native Win32 interface for Win NT & 2000
Gap handling : Appended to previous track
Used output format : User Defined Encoder
Selected bitrate : 320 kBit/s
Quality : High
Add ID3 tag : No
Command line compressor : Z:\Program Files (x86)\Exact Audio Copy\Flac\flac.exe
Additional command line options : -V -8 -T "artist=%a" -T "title=%t" -T "album=%g" -T "date=%y" -T "tracknumber=%n" -T "genre=%m" %s
TOC of the extracted CD
Track | Start | Length | Start sector | End sector
---------------------------------------------------------
1 | 0:00.32 | 2:14.33 | 32 | 10114
2 | 2:14.65 | 2:37.00 | 10115 | 21889
3 | 4:51.65 | 5:23.32 | 21890 | 46146
4 | 10:15.22 | 2:49.18 | 46147 | 58839
5 | 13:04.40 | 2:02.40 | 58840 | 68029
6 | 15:07.05 | 2:47.00 | 68030 | 80554
7 | 17:54.05 | 3:33.00 | 80555 | 96529
8 | 21:27.05 | 2:55.02 | 96530 | 109656
9 | 24:22.07 | 2:40.25 | 109657 | 121681
10 | 27:02.32 | 2:35.70 | 121682 | 133376
11 | 29:38.27 | 4:22.58 | 133377 | 153084
12 | 34:01.10 | 2:38.35 | 153085 | 164969
13 | 36:39.45 | 3:17.57 | 164970 | 179801
14 | 39:57.27 | 2:27.55 | 179802 | 190881
15 | 42:25.07 | 3:18.50 | 190882 | 205781
16 | 45:43.57 | 2:38.03 | 205782 | 217634
Track 1
Filename Z:\CD rips\Antonio Carlos Jobim - 1993 - Personalidade\01 - Samba Do Avião.wav
Pre-gap length 0:00:02.42
Peak level 66.8 %
Extraction speed 2.9 X
Track quality 100.0 %
Test CRC 90832D35
Copy CRC 90832D35
Accurately ripped (confidence 2) [27276365]
Copy OK
Track 2
Filename Z:\CD rips\Antonio Carlos Jobim - 1993 - Personalidade\02 - Vivo Sonhando (Instrumental).wav
Pre-gap length 0:00:00.30
Peak level 43.3 %
Extraction speed 3.3 X
Track quality 100.0 %
Test CRC E03E4B03
Copy CRC E03E4B03
Accurately ripped (confidence 2) [296F3CE8]
Copy OK
Track 3
Filename Z:\CD rips\Antonio Carlos Jobim - 1993 - Personalidade\03 - Ana Luiza.wav
Peak level 69.2 %
Extraction speed 3.4 X
Track quality 99.9 %
Test CRC A06BA68B
Copy CRC A06BA68B
Accurately ripped (confidence 2) [DE1CBAB2]
Copy OK
Track 4
Filename Z:\CD rips\Antonio Carlos Jobim - 1993 - Personalidade\04 - Água De Beber (Instrumental).wav
Peak level 44.0 %
Extraction speed 4.0 X
Track quality 100.0 %
Test CRC 6FBA0552
Copy CRC 6FBA0552
Accurately ripped (confidence 2) [E201DC8B]
Copy OK
Track 5
Filename Z:\CD rips\Antonio Carlos Jobim - 1993 - Personalidade\05 - A Felicidade.wav
Pre-gap length 0:00:00.50
Peak level 55.6 %
Extraction speed 2.7 X
Track quality 99.9 %
Test CRC 120CEA1F
Copy CRC 120CEA1F
Accurately ripped (confidence 2) [43A4771A]
Copy OK
Track 6
Filename Z:\CD rips\Antonio Carlos Jobim - 1993 - Personalidade\06 - Desafinado (Instrumental).wav
Pre-gap length 0:00:00.17
Peak level 54.5 %
Extraction speed 4.4 X
Track quality 100.0 %
Test CRC 7847E3D6
Copy CRC 7847E3D6
Accurately ripped (confidence 2) [7CAA47C5]
Copy OK
Track 7
Filename Z:\CD rips\Antonio Carlos Jobim - 1993 - Personalidade\07 - Águas De Março.wav
Peak level 59.7 %
Extraction speed 4.8 X
Track quality 100.0 %
Test CRC 91040104
Copy CRC 91040104
Accurately ripped (confidence 2) [96C17ABD]
Copy OK
Track 8
Filename Z:\CD rips\Antonio Carlos Jobim - 1993 - Personalidade\08 - Insensatez (Instrumental).wav
Peak level 52.9 %
Extraction speed 4.8 X
Track quality 100.0 %
Test CRC 9F651AFC
Copy CRC 9F651AFC
Accurately ripped (confidence 2) [43987F49]
Copy OK
Track 9
Filename Z:\CD rips\Antonio Carlos Jobim - 1993 - Personalidade\09 - Garota De Ipanema.wav
Pre-gap length 0:00:00.22
Peak level 38.7 %
Extraction speed 4.9 X
Track quality 100.0 %
Test CRC D6CA2D61
Copy CRC D6CA2D61
Accurately ripped (confidence 2) [0746DFD9]
Copy OK
Track 10
Filename Z:\CD rips\Antonio Carlos Jobim - 1993 - Personalidade\10 - O Morro Não Tem Vez.wav
Pre-gap length 0:00:01.62
Peak level 51.3 %
Extraction speed 5.0 X
Track quality 100.0 %
Test CRC 5AB24169
Copy CRC 5AB24169
Accurately ripped (confidence 2) [32E4B4AB]
Copy OK
Track 11
Filename Z:\CD rips\Antonio Carlos Jobim - 1993 - Personalidade\11 - Chega De Saudade (Instrumental).wav
Peak level 45.2 %
Extraction speed 5.7 X
Track quality 100.0 %
Test CRC 111B422C
Copy CRC 111B422C
Accurately ripped (confidence 2) [49FE175B]
Copy OK
Track 12
Filename Z:\CD rips\Antonio Carlos Jobim - 1993 - Personalidade\12 - Ela É Carioca.wav
Pre-gap length 0:00:01.33
Peak level 50.5 %
Extraction speed 5.4 X
Track quality 100.0 %
Test CRC B78AE5B2
Copy CRC B78AE5B2
Accurately ripped (confidence 2) [614B7274]
Copy OK
Track 13
Filename Z:\CD rips\Antonio Carlos Jobim - 1993 - Personalidade\13 - Meditação (Instrumental).wav
Peak level 43.3 %
Extraction speed 5.8 X
Track quality 100.0 %
Test CRC B495CC16
Copy CRC B495CC16
Accurately ripped (confidence 2) [08FDFB23]
Copy OK
Track 14
Filename Z:\CD rips\Antonio Carlos Jobim - 1993 - Personalidade\14 - Só Tinha Qhe Ser Com Você.wav
Peak level 56.8 %
Extraction speed 4.0 X
Track quality 99.9 %
Test CRC CF863741
Copy CRC CF863741
Accurately ripped (confidence 2) [032B83C2]
Copy OK
Track 15
Filename Z:\CD rips\Antonio Carlos Jobim - 1993 - Personalidade\15 - Nuvens Douradas (Instrumental).wav
Peak level 43.1 %
Extraction speed 6.1 X
Track quality 100.0 %
Test CRC 86C31260
Copy CRC 86C31260
Accurately ripped (confidence 2) [3E092CE2]
Copy OK
Track 16
Filename Z:\CD rips\Antonio Carlos Jobim - 1993 - Personalidade\16 - Dindi.wav
Pre-gap length 0:00:01.66
Peak level 45.1 %
Extraction speed 6.1 X
Track quality 100.0 %
Test CRC EE2B8B11
Copy CRC EE2B8B11
Accurately ripped (confidence 2) [CD393B33]
Copy OK
All tracks accurately ripped
No errors occurred
End of status report
 
Содержание индексной карты (.CUE)
REM GENRE Jazz
REM DATE 1993
REM DISCID E60B5510
REM COMMENT "ExactAudioCopy v1.0b1"
PERFORMER "Antonio Carlos Jobim"
TITLE "Personalidade"
FILE "01. Samba Do Aviao.flac" WAVE
TRACK 01 AUDIO
PREGAP 00:00:32
INDEX 01 00:00:00
TRACK 02 AUDIO
INDEX 00 02:14:10
FILE "02. Vivo Sonhando (Instrumental).flac" WAVE
INDEX 01 00:00:00
FILE "03. Ana Luiza.flac" WAVE
TRACK 03 AUDIO
INDEX 01 00:00:00
FILE "04. Agua De Beber (Instrumental).flac" WAVE
TRACK 04 AUDIO
INDEX 01 00:00:00
TRACK 05 AUDIO
INDEX 00 02:48:55
FILE "05. A Felicidade.flac" WAVE
INDEX 01 00:00:00
TRACK 06 AUDIO
INDEX 00 02:02:27
FILE "06. Desafinado (Instrumental).flac" WAVE
INDEX 01 00:00:00
FILE "07. Aguas De Marco.flac" WAVE
TRACK 07 AUDIO
INDEX 01 00:00:00
FILE "08. Insensatez (Instrumental).flac" WAVE
TRACK 08 AUDIO
INDEX 01 00:00:00
TRACK 09 AUDIO
INDEX 00 02:54:60
FILE "09. Garota De Ipanema.flac" WAVE
INDEX 01 00:00:00
TRACK 10 AUDIO
INDEX 00 02:38:53
FILE "10. O Morro Nao Tem Vez.flac" WAVE
INDEX 01 00:00:00
FILE "11. Chega De Saudade (Instrumental).flac" WAVE
TRACK 11 AUDIO
INDEX 01 00:00:00
TRACK 12 AUDIO
INDEX 00 04:21:33
FILE "12. Ela E Carioca.flac" WAVE
INDEX 01 00:00:00
FILE "13. Meditacao (Instrumental).flac" WAVE
TRACK 13 AUDIO
INDEX 01 00:00:00
FILE "14. So Tinha Qhe Ser Com Voce.flac" WAVE
TRACK 14 AUDIO
INDEX 01 00:00:00
FILE "15. Nuvens Douradas (Instrumental).flac" WAVE
TRACK 15 AUDIO
INDEX 01 00:00:00
TRACK 16 AUDIO
INDEX 00 03:17:00
FILE "16. Dindi.flac" WAVE
INDEX 01 00:00:00
10:13
495
Нет комментариев. Ваш будет первым!