Поиск

(Latin Jazz, Afro-Cuban Jazz, Salsa) Manny Oquendo Y Su Conjunto Libre - Libre Increible - 1994, FLAC (image+.cue), lossless

(Latin Jazz, Afro-Cuban Jazz, Salsa) Manny Oquendo Y Su Conjunto Libre - Libre Increible - 1994, FLAC (image+.cue), lossless
♦ Manny Oquendo Y Su Conjunto Libre - Libre Increible ♦
Жанр: Latin Jazz, Afro-Cuban Jazz, Salsa
Страна-производитель диска (релиза): USA
Год издания: 1994
Издатель (лейбл): SalSoul
Номер по каталогу: 20-70012
Аудиокодек: FLAC (*.flac)
Тип рипа: image+.cue
Битрейт аудио: lossless
Продолжительность: 00:38:03
Источник (релизер): dreadbull
Наличие сканов в содержимом раздачи: да
Треклист:
01. Yo No Vuelvo Contigo [06:13]
02. Decidete [05:38]
03. Goza La Vida [07:26]
04. No Me Hechen La Culpa [06:56]
05. Traicionera [05:45]
06. Lo Que Se Da No Se Quita [06:03]
 
Лог создания рипа
Exact Audio Copy V1.0 beta 3 from 29. August 2011
EAC extraction logfile from 24. April 2013, 3:40
Manny Oquendo y su Conjunto Libre / Libre Increible
Used drive : ASUS DRW-22B2L Adapter: 0 ID: 0
Read mode : Secure
Utilize accurate stream : Yes
Defeat audio cache : Yes
Make use of C2 pointers : No
Read offset correction : 6
Overread into Lead-In and Lead-Out : No
Fill up missing offset samples with silence : Yes
Delete leading and trailing silent blocks : No
Null samples used in CRC calculations : Yes
Used interface : Native Win32 interface for Win NT & 2000
Used output format : User Defined Encoder
Selected bitrate : 128 kBit/s
Quality : High
Add ID3 tag : Yes
Command line compressor : C:\Program Files\FLAC\flac.exe
Additional command line options : -8 -V -T "ARTIST=%artist%" -T "TITLE=%title%" -T "ALBUM=%albumtitle%" -T "DATE=%year%" -T "TRACKNUMBER=%tracknr%" -T "GENRE=%genre%" -T "PERFORMER=%albuminterpret%" -T "COMPOSER=%composer%" %haslyrics%--tag-from-file=LYRICS="%lyricsfile%"%haslyrics% -T "ALBUMARTIST=%albumartist%" -T "DISCNUMBER=%cdnumber%" -T "TOTALDISCS=%totalcds%" -T "TOTALTRACKS=%numtracks%" -T "COMMENT=%comment%" %source% -o %dest%
TOC of the extracted CD
Track | Start | Length | Start sector | End sector
---------------------------------------------------------
1 | 0:00.00 | 6:13.00 | 0 | 27974
2 | 6:13.00 | 5:38.10 | 27975 | 53334
3 | 11:51.10 | 7:26.55 | 53335 | 86839
4 | 19:17.65 | 6:56.37 | 86840 | 118076
5 | 26:14.27 | 5:45.55 | 118077 | 144006
6 | 32:00.07 | 6:03.03 | 144007 | 171234
Range status and errors
Selected range
Filename F:\Donkey Files\Manny Oquendo - Libre Increible (1981, Salsoul; 1994) [eac-flac-scans] byDrBull\Manny Oquendo - Libre Increible.wav
Peak level 94.6 %
Extraction speed 2.8 X
Range quality 100.0 %
Test CRC 46D2134B
Copy CRC 46D2134B
Copy OK
No errors occurred
AccurateRip summary
Track 1 cannot be verified as accurate (confidence 1) [FD061C2F], AccurateRip returned [C6B9B287] (AR v2)
Track 2 cannot be verified as accurate (confidence 1) [59FC9B1D], AccurateRip returned [87BE7E0F] (AR v2)
Track 3 cannot be verified as accurate (confidence 1) [97ABF407], AccurateRip returned [A281801F] (AR v2)
Track 4 cannot be verified as accurate (confidence 1) [0E815D68], AccurateRip returned [D8922E30] (AR v2)
Track 5 cannot be verified as accurate (confidence 1) [D8D47A1B], AccurateRip returned [C5317D9F] (AR v2)
Track 6 cannot be verified as accurate (confidence 1) [5166E415], AccurateRip returned [D6C15BCE] (AR v2)
No tracks could be verified as accurate
You may have a different pressing from the one(s) in the database
End of status report
==== Log checksum F8E3397B643B4E30622F5AF917067EEC70312E0CD4D1D817D7DD1678F6B8BD59 ====
 
Содержание индексной карты (.CUE)
REM GENRE Salsa
REM DATE 2005
REM DISCID 4D08EB06
REM COMMENT "ExactAudioCopy v1.0b3"
PERFORMER "Manny Oquendo y su Conjunto Libre"
TITLE "Libre Increible"
FILE "Manny Oquendo - Libre Increible.flac" WAVE
TRACK 01 AUDIO
TITLE "Yo no vuelvo contigo"
PERFORMER "Manny Oquendo y su Conjunto Libre"
INDEX 01 00:00:00
TRACK 02 AUDIO
TITLE "Decidete"
PERFORMER "Manny Oquendo y su Conjunto Libre"
INDEX 00 06:09:55
INDEX 01 06:13:00
TRACK 03 AUDIO
TITLE "Goza la vida"
PERFORMER "Manny Oquendo y su Conjunto Libre"
INDEX 00 11:47:32
INDEX 01 11:51:10
TRACK 04 AUDIO
TITLE "No me hechen la culpa"
PERFORMER "Manny Oquendo y su Conjunto Libre"
INDEX 00 19:16:40
INDEX 01 19:17:65
TRACK 05 AUDIO
TITLE "Traicionera"
PERFORMER "Manny Oquendo y su Conjunto Libre"
INDEX 00 26:11:20
INDEX 01 26:14:27
TRACK 06 AUDIO
TITLE "Lo que se da no se quita"
PERFORMER "Manny Oquendo y su Conjunto Libre"
INDEX 00 31:57:32
INDEX 01 32:00:07
 
Состав
Personnel:
Manny Oquendo - leader, timbales, bongo, percussion;
Andy Gonzalez - musical director, bass, percussion;
Jerry Gonzalez - congas, trumpet;
Tony "Pupy" Torres - vocals;
Herman Olivera - vocals;
Angel "Papo" Vazquez -trombone;
Jimmy Bosch - trombone;
Dan Reagan - trombone;
Dave Valentin - flute;
Oscar Hernandez - piano;
Jose Peña - tambora, congas;
Cesar Ozuna - guira;
Milton Cardona - coro;
Felo Barrios - coro.Rec. at Radio City Recording, NYC.
12:06
286
Нет комментариев. Ваш будет первым!