Поиск

(Latin Jazz, Afro-Cuban Jazz, Post-Bop, Trumpet Jazz) Jerry Gonzalez & the Fort Apache Band - Obatala - 1989, APE (image+.cue), lossless

Треклист:
Jerry Gonzalez & the Fort Apache Band - Obatalá
Жанр: Latin Jazz, Afro-Cuban Jazz, Post-Bop, Trumpet Jazz
Страна-производитель диска: Canada
Год издания диска: 1989
Издатель (лейбл): Enjarecords
Номер по каталогу: R2 79609
Страна: USA
Аудиокодек: APE (*.ape)
Тип рипа: image+.cue
Битрейт аудио: lossless
Продолжительность: 01:06:44
Источник (релизер): сеть
Наличие сканов в содержимом раздачи: да

1. Intro /Jerry Gonzalez/ 2:27
2. Nefertiti /Shorter/ 10:22
3. Obatalá /Milton Cardona/ 7:13
4. Evidence /Monk/ 11:01
5. Siempre Junto a Ti /Pepe Delgado/ 7:58
6. Eighty-One /Davis, Carter/ 14:48
7. Jackie-ing /Monk/ 11:58.
 
Лог создания рипа
Exact Audio Copy V1.0 beta 2 from 29. April 2011
EAC extraction logfile from 1. October 2011, 19:14
Jerry Gonzalez & The Fort Apache Band / Obatalá
Used drive : ASUS DRW-22B2L Adapter: 0 ID: 1
Read mode : Secure
Utilize accurate stream : Yes
Defeat audio cache : Yes
Make use of C2 pointers : No
Read offset correction : 6
Overread into Lead-In and Lead-Out : No
Fill up missing offset samples with silence : Yes
Delete leading and trailing silent blocks : No
Null samples used in CRC calculations : Yes
Used interface : Native Win32 interface for Win NT & 2000
Used output format : Internal WAV Routines
Sample format : 44.100 Hz; 16 Bit; Stereo
TOC of the extracted CD
Track | Start | Length | Start sector | End sector
---------------------------------------------------------
1 | 0:00.50 | 2:27.02 | 50 | 11076
2 | 2:27.52 | 10:21.63 | 11077 | 57714
3 | 12:49.40 | 7:16.67 | 57715 | 90481
4 | 20:06.32 | 11:20.68 | 90482 | 141549
5 | 31:27.25 | 8:15.67 | 141550 | 178741
6 | 39:43.17 | 15:03.45 | 178742 | 246511
7 | 54:46.62 | 11:57.68 | 246512 | 300354
Range status and errors
Selected range
Filename D:\Donkey Files\Jerry Gonzalez & the Fort Apache Band - Obatala (1989, Enja) [eac-ape-scans] byDrBull\Jerry Gonzalez & The Fort Apache Band - Obatalá.wav
Peak level 90.9 %
Extraction speed 3.6 X
Range quality 100.0 %
Test CRC C2A3E880
Copy CRC C2A3E880
Copy OK
No errors occurred
AccurateRip summary
Track 1 accurately ripped (confidence 3) [049AC57B] (AR v1)
Track 2 accurately ripped (confidence 3) [9BE6F283] (AR v1)
Track 3 accurately ripped (confidence 3) [E2AB7251] (AR v1)
Track 4 accurately ripped (confidence 3) [1BA37D10] (AR v1)
Track 5 accurately ripped (confidence 3) [345F8186] (AR v1)
Track 6 accurately ripped (confidence 3) [2C40651A] (AR v1)
Track 7 accurately ripped (confidence 3) [80C241EE] (AR v1)
All tracks accurately ripped
End of status report
==== Log checksum 5D43149F1DBF4DEDCAC92A06C91F8B65275617CBE3180A39DFBC21421BB7BE6E ====
 
Содержание индексной карты (.CUE)
REM DISCID 6B0FA407
REM COMMENT "ExactAudioCopy v1.0b2"
PERFORMER "Jerry Gonzalez & The Fort Apache Band"
TITLE "Obatala"
FILE "Jerry Gonzalez & The Fort Apache Band - Obatala.wav" WAVE
TRACK 01 AUDIO
TITLE "Intro"
PERFORMER "Jerry Gonzalez & The Fort Apache Band"
INDEX 00 00:00:00
INDEX 01 00:00:50
TRACK 02 AUDIO
TITLE "Nefertiti"
PERFORMER "Jerry Gonzalez & The Fort Apache Band"
INDEX 01 02:27:52
TRACK 03 AUDIO
TITLE "Obatala"
PERFORMER "Jerry Gonzalez & The Fort Apache Band"
INDEX 01 12:49:40
TRACK 04 AUDIO
TITLE "Evidence"
PERFORMER "Jerry Gonzalez & The Fort Apache Band"
INDEX 00 20:03:32
INDEX 01 20:06:32
TRACK 05 AUDIO
TITLE "Siempre Junto A Ti"
PERFORMER "Jerry Gonzalez & The Fort Apache Band"
INDEX 00 31:09:25
INDEX 01 31:27:25
TRACK 06 AUDIO
TITLE "Eighty-One"
PERFORMER "Jerry Gonzalez & The Fort Apache Band"
INDEX 00 39:29:17
INDEX 01 39:43:17
TRACK 07 AUDIO
TITLE "Jackie-ing"
PERFORMER "Jerry Gonzalez & The Fort Apache Band"
INDEX 00 54:31:55
INDEX 01 54:46:62
 
Состав
Jerry González - trumpet, flugelhorn, congas
John Stubblefield - tenor sax
Angel "Papo" Vázquez - trombone
Larry Willis - piano
Edgardo Miranda - guitar
Andy González - bass
Steve Berrios - drums, batá, chekere, coro
Milton Cardona - bata, lead vocal, chekere
Hector "Flaco" Hernández - batá, chekere, conga, coro
Nicky Marrero - timbales, percussion
00:55
322
Нет комментариев. Ваш будет первым!