Поиск

(Latin Jazz / Afro-Cuban Jazz) Omar Sosa - Across The Divide - 2009, FLAC (tracks+.cue), lossless

Треклист:
Omar Sosa - Across The Divide
Жанр: Latin Jazz / Afro-Cuban Jazz
Год выпуска : 2009
Лейбл: Halfnote
Аудио кодек: FLAC
Тип рипа: tracks+.cue
Битрейт аудио: lossless
Продолжительность: 00:48:24
Рип: What CD


01. Promise Land (7:05)
02. Glu-Glu (5:39)
03. Gabriel's Trumpet (6:15)
04. Across Africa (The Dream) (3:29)
05. Across Africa (Arrival) (5:34)
06. Sugar Baby Blues (5:08)
07. Night of The Four Songs (5:12)
08. Solstice (4:54)
09. Ancestors (5:09)

 
EAC
Exact Audio Copy V0.99 prebeta 5 from 4. May 2009
EAC extraction logfile from 4. August 2009, 16:56
Omar Sosa / Across The Divide
Used drive : Optiarc DVD RW AD-7200S Adapter: 0 ID: 0
Read mode : Secure
Utilize accurate stream : Yes
Defeat audio cache : Yes
Make use of C2 pointers : No
Read offset correction : 48
Overread into Lead-In and Lead-Out : No
Fill up missing offset samples with silence : Yes
Delete leading and trailing silent blocks : No
Null samples used in CRC calculations : Yes
Used interface : Installed external ASPI interface
Gap handling : Appended to previous track
Used output format : User Defined Encoder
Selected bitrate : 128 kBit/s
Quality : High
Add ID3 tag : No
Command line compressor : C:\Program Files\Exact Audio Copy\Flac\flac.exe
Additional command line options : -V -8 -T "artist=%a" -T "title=%t" -T "album=%g" -T "date=%y" -T "tracknumber=%n" -T "genre=%m" %s
TOC of the extracted CD
Track | Start | Length | Start sector | End sector
---------------------------------------------------------
1 | 0:00.00 | 7:04.59 | 0 | 31858
2 | 7:04.59 | 5:38.53 | 31859 | 57261
3 | 12:43.37 | 6:14.45 | 57262 | 85356
4 | 18:58.07 | 3:28.62 | 85357 | 101018
5 | 22:26.69 | 5:34.26 | 101019 | 126094
6 | 28:01.20 | 5:07.48 | 126095 | 149167
7 | 33:08.68 | 5:12.29 | 149168 | 172596
8 | 38:21.22 | 4:54.19 | 172597 | 194665
9 | 43:15.41 | 5:08.73 | 194666 | 217838
Track 1
Filename Z:\media\fichiers\myrips\FLAC\Omar Sosa - 2009 - Across The Divide\01 - Promise Land.wav
Pre-gap length 0:00:02.00
Peak level 98.1 %
Track quality 100.0 %
Test CRC 6B7DD5A0
Copy CRC 6B7DD5A0
Track not present in AccurateRip database
Copy OK
Track 2
Filename Z:\media\fichiers\myrips\FLAC\Omar Sosa - 2009 - Across The Divide\02 - Glu-Glu.wav
Peak level 96.9 %
Track quality 99.9 %
Test CRC 15430DD9
Copy CRC 15430DD9
Track not present in AccurateRip database
Copy OK
Track 3
Filename Z:\media\fichiers\myrips\FLAC\Omar Sosa - 2009 - Across The Divide\03 - Gabriel's Trumpet.wav
Peak level 96.2 %
Track quality 100.0 %
Test CRC 45E0DCF9
Copy CRC 45E0DCF9
Track not present in AccurateRip database
Copy OK
Track 4
Filename Z:\media\fichiers\myrips\FLAC\Omar Sosa - 2009 - Across The Divide\04 - Across Africa (The Dream).wav
Peak level 95.3 %
Track quality 100.0 %
Test CRC 26E216C4
Copy CRC 26E216C4
Track not present in AccurateRip database
Copy OK
Track 5
Filename Z:\media\fichiers\myrips\FLAC\Omar Sosa - 2009 - Across The Divide\05 - Across Africa (Arrival).wav
Peak level 97.0 %
Track quality 100.0 %
Test CRC F58752F5
Copy CRC F58752F5
Track not present in AccurateRip database
Copy OK
Track 6
Filename Z:\media\fichiers\myrips\FLAC\Omar Sosa - 2009 - Across The Divide\06 - Sugar Baby Blues.wav
Peak level 98.2 %
Track quality 100.0 %
Test CRC DA52D5AE
Copy CRC DA52D5AE
Track not present in AccurateRip database
Copy OK
Track 7
Filename Z:\media\fichiers\myrips\FLAC\Omar Sosa - 2009 - Across The Divide\07 - Night of The Four Songs.wav
Peak level 95.4 %
Track quality 100.0 %
Test CRC C3C33244
Copy CRC C3C33244
Track not present in AccurateRip database
Copy OK
Track 8
Filename Z:\media\fichiers\myrips\FLAC\Omar Sosa - 2009 - Across The Divide\08 - Solstice.wav
Peak level 92.8 %
Track quality 100.0 %
Test CRC 51B0FCE0
Copy CRC 51B0FCE0
Track not present in AccurateRip database
Copy OK
Track 9
Filename Z:\media\fichiers\myrips\FLAC\Omar Sosa - 2009 - Across The Divide\09 - Ancestors.wav
Peak level 95.3 %
Track quality 100.0 %
Test CRC B181ABFF
Copy CRC B181ABFF
Track not present in AccurateRip database
Copy OK
None of the tracks are present in the AccurateRip database
No errors occurred
End of status report
 
CUE
REM GENRE Jazz
REM DATE 2009
REM DISCID 7A0B5809
REM COMMENT "ExactAudioCopy v0.99pb5"
FILE "01 - Promise Land.wav" WAVE
TRACK 01 AUDIO
INDEX 01 00:00:00
FILE "02 - Glu-Glu.wav" WAVE
TRACK 02 AUDIO
INDEX 01 00:00:00
FILE "03 - Gabriel's Trumpet.wav" WAVE
TRACK 03 AUDIO
INDEX 01 00:00:00
FILE "04 - Across Africa (The Dream).wav" WAVE
TRACK 04 AUDIO
INDEX 01 00:00:00
FILE "05 - Across Africa (Arrival).wav" WAVE
TRACK 05 AUDIO
INDEX 01 00:00:00
FILE "06 - Sugar Baby Blues.wav" WAVE
TRACK 06 AUDIO
INDEX 01 00:00:00
FILE "07 - Night of The Four Songs.wav" WAVE
TRACK 07 AUDIO
INDEX 01 00:00:00
FILE "08 - Solstice.wav" WAVE
TRACK 08 AUDIO
INDEX 01 00:00:00
FILE "09 - Ancestors.wav" WAVE
TRACK 09 AUDIO
INDEX 01 00:00:00
Omar Sosa (8 альбомов) 1998 - 2008
07:16
518
Нет комментариев. Ваш будет первым!