Поиск

(Latin Jazz, Afro-Cuban Jazz) German Velazco - The Cuban Timba/Fusion Project - 2006, FLAC (tracks+.cue), lossless

Треклист:
Germán Velazco / The Cuban Timba/Fusion Project
Жанр: Latin Jazz, Afro-Cuban Jazz
Страна-производитель диска: Cuba
Год издания диска: 2006
Издатель (лейбл): EGREM
Номер по каталогу: CD-0829
Страна: Cuba
Аудиокодек: FLAC (*.flac)
Тип рипа: tracks+.cue
Битрейт аудио: lossless
Продолжительность: 00:46:43
Источник (релизер): tiburon
Наличие сканов в содержимом раздачи: да
Треклист:
01. Sentido [05:09]
02. Sentido [05:09]
03. Latineando [05:06]
04. Danae [06:18]
05. Timbop [06:45]
06. Enlace [05:37]
07. Brazo extendido [04:44]
08. Nostalgias [07:52]
 
Лог создания рипа
Exact Audio Copy V0.99 prebeta 4 from 23. January 2008
EAC extraction logfile from 9. March 2010, 23:23
German Velazco / The Cuban Timba-Fusion Project
Used drive : TSSTcorpCDDVDW TS-H653N Adapter: 2 ID: 2
Read mode : Secure
Utilize accurate stream : Yes
Defeat audio cache : Yes
Make use of C2 pointers : No
Read offset correction : 6
Overread into Lead-In and Lead-Out : No
Fill up missing offset samples with silence : Yes
Delete leading and trailing silent blocks : No
Null samples used in CRC calculations : Yes
Used interface : Native Win32 interface for Win NT & 2000
Gap handling : Appended to previous track
Used output format : User Defined Encoder
Selected bitrate : 1024 kBit/s
Quality : High
Add ID3 tag : No
Command line compressor : C:\Program Files\FLAC -\flac.exe
Additional command line options : -5 -V -T "artist=%a" -T "title=%t" -T "album=%g" -T "date=%y" -T "tracknumber=%n" -T "genre=%m" -T comment="shared by pastafari cubensis" %s
TOC of the extracted CD
Track | Start | Length | Start sector | End sector
---------------------------------------------------------
1 | 0:00.00 | 5:11.72 | 0 | 23396
2 | 5:11.72 | 8:33.33 | 23397 | 61904
3 | 13:45.30 | 5:08.03 | 61905 | 85007
4 | 18:53.33 | 6:20.00 | 85008 | 113507
5 | 25:13.33 | 6:47.61 | 113508 | 144093
6 | 32:01.19 | 5:39.69 | 144094 | 169587
7 | 37:41.13 | 4:46.08 | 169588 | 191045
8 | 42:27.21 | 7:52.07 | 191046 | 226452
Track 1
Filename C:\CD_buffer\German Velazco - 2006 - The Cuban Timba-Fusion Project [FLAC]\01- Sentido.wav
Pre-gap length 0:00:02.00
Peak level 100.0 %
Track quality 100.0 %
Test CRC B3962884
Copy CRC B3962884
Copy OK
Track 2
Filename C:\CD_buffer\German Velazco - 2006 - The Cuban Timba-Fusion Project [FLAC]\02- Mr. Lucumн.wav
Pre-gap length 0:00:02.00
Peak level 100.0 %
Track quality 100.0 %
Test CRC 69EA4CA9
Copy CRC 69EA4CA9
Copy OK
Track 3
Filename C:\CD_buffer\German Velazco - 2006 - The Cuban Timba-Fusion Project [FLAC]\03- Latineando.wav
Pre-gap length 0:00:02.00
Peak level 100.0 %
Track quality 100.0 %
Test CRC 2BF5FB95
Copy CRC 2BF5FB95
Copy OK
Track 4
Filename C:\CD_buffer\German Velazco - 2006 - The Cuban Timba-Fusion Project [FLAC]\04- Danae.wav
Pre-gap length 0:00:02.00
Peak level 100.0 %
Track quality 100.0 %
Test CRC F681E8E6
Copy CRC F681E8E6
Copy OK
Track 5
Filename C:\CD_buffer\German Velazco - 2006 - The Cuban Timba-Fusion Project [FLAC]\05- Timbop.wav
Pre-gap length 0:00:02.00
Peak level 100.0 %
Track quality 100.0 %
Test CRC 480AAD1D
Copy CRC 480AAD1D
Copy OK
Track 6
Filename C:\CD_buffer\German Velazco - 2006 - The Cuban Timba-Fusion Project [FLAC]\06- Enlace.wav
Pre-gap length 0:00:02.00
Peak level 100.0 %
Track quality 100.0 %
Test CRC BE9514F8
Copy CRC BE9514F8
Copy OK
Track 7
Filename C:\CD_buffer\German Velazco - 2006 - The Cuban Timba-Fusion Project [FLAC]\07- Brazo extendido.wav
Pre-gap length 0:00:02.00
Peak level 100.0 %
Track quality 100.0 %
Test CRC 6588B1DD
Copy CRC 6588B1DD
Copy OK
Track 8
Filename C:\CD_buffer\German Velazco - 2006 - The Cuban Timba-Fusion Project [FLAC]\08- Nostalgias.wav
Pre-gap length 0:00:02.00
Peak level 88.0 %
Track quality 100.0 %
Test CRC FA92A54B
Copy CRC FA92A54B
Copy OK
No errors occurred
End of status report
 
Содержание индексной карты (.CUE)
REM GENRE "Latin Jazz"
REM DATE 2006
REM DISCID 600BCB08
REM COMMENT "ExactAudioCopy v0.99pb4"
PERFORMER "German Velazco"
TITLE "The Cuban Timba-Fusion Project"
FILE "01- Sentido.wav" WAVE
TRACK 01 AUDIO
TITLE "Sentido"
PERFORMER "German Velazco"
INDEX 01 00:00:00
TRACK 02 AUDIO
TITLE "Mr. Lucumн"
PERFORMER "German Velazco"
INDEX 00 05:09:72
FILE "02- Mr. Lucumн.wav" WAVE
INDEX 01 00:00:00
TRACK 03 AUDIO
TITLE "Latineando"
PERFORMER "German Velazco"
INDEX 00 08:31:33
FILE "03- Latineando.wav" WAVE
INDEX 01 00:00:00
TRACK 04 AUDIO
TITLE "Danae"
PERFORMER "German Velazco"
INDEX 00 05:06:03
FILE "04- Danae.wav" WAVE
INDEX 01 00:00:00
TRACK 05 AUDIO
TITLE "Timbop"
PERFORMER "German Velazco"
INDEX 00 06:18:00
FILE "05- Timbop.wav" WAVE
INDEX 01 00:00:00
TRACK 06 AUDIO
TITLE "Enlace"
PERFORMER "German Velazco"
INDEX 00 06:45:61
FILE "06- Enlace.wav" WAVE
INDEX 01 00:00:00
TRACK 07 AUDIO
TITLE "Brazo extendido"
PERFORMER "German Velazco"
INDEX 00 05:37:69
FILE "07- Brazo extendido.wav" WAVE
INDEX 01 00:00:00
TRACK 08 AUDIO
TITLE "Nostalgias"
PERFORMER "German Velazco"
INDEX 00 04:44:08
FILE "08- Nostalgias.wav" WAVE
INDEX 01 00:00:00
00:36
387
Нет комментариев. Ваш будет первым!