Поиск

(Latin Jazz, Afro-Cuban Jazz) [CD] Hilton Ruiz - Manhattan Mambo - 1992, FLAC (tracks+.cue), lossless

(Latin Jazz, Afro-Cuban Jazz) [CD] Hilton Ruiz - Manhattan Mambo - 1992, FLAC (tracks+.cue), lossless
Треклист:
Hilton Ruiz - Manhattan Mambo
Жанр: Latin Jazz, Afro-Cuban Jazz
Носитель: CD
Страна-производитель диска: США
Год издания: 1992
Издатель (лейбл): Telarc
Номер по каталогу: CD-83322
Аудиокодек: FLAC (*.flac)
Тип рипа: tracks+.cue
Битрейт аудио: lossless
Продолжительность: 52:22
Источник (релизер): fuzzymuzzy (what)
Наличие сканов в содержимом раздачи: нет
Треклист:
01. Mambo Numero Cinco (Prado) - 5:04
02. Sure Thing (Ruiz) - 6:36
03. Michael's Mambo (Ruiz) - 4:30
04. Home Cookin' (Ruiz) - 5:20
05. Overtime Mambo (Vazquez) - 7:38
06. Giovanni Speaks (Hidalgo) - 6:21
07. Impressions (Coltrane) - 10:16
08. Showtime (Ruiz) - 6:37
Состав:
Hilton Ruiz - piano
Charlie Sepulveda - trumpet
David Sanchez - tenor saxophone
Papo Vazquez - trombone
Andy Gonzalez - bass
Ignacio Berroa - drums, timbales
Steve Berrios - timbales, percussion
Joe Gonzalez - bongos, chekere
Giovanni Hidalgo - conga, cowbell
Recorded at BMG Studios, New York on April 28, 1992.
 
Лог создания рипа
Exact Audio Copy V0.99 prebeta 3 from 28. July 2007
EAC extraction logfile from 10. September 2010, 17:51
Hilton Ruiz / Manhattan Mambo
Used drive : ASUS DRW-1814BL Adapter: 1 ID: 0
Read mode : Secure
Utilize accurate stream : Yes
Defeat audio cache : Yes
Make use of C2 pointers : No
Read offset correction : 6
Overread into Lead-In and Lead-Out : No
Fill up missing offset samples with silence : Yes
Delete leading and trailing silent blocks : No
Null samples used in CRC calculations : Yes
Used interface : Native Win32 interface for Win NT & 2000
Gap handling : Appended to previous track
Used output format : User Defined Encoder
Selected bitrate : 128 kBit/s
Quality : High
Add ID3 tag : No
Command line compressor : C:\Program Files\Exact Audio Copy\Flac\flac.exe
Additional command line options : -V -8 -T "artist=%a" -T "title=%t" -T "album=%g" -T "date=%y" -T "tracknumber=%n" -T "genre=%m" %s
TOC of the extracted CD
Track | Start | Length | Start sector | End sector
---------------------------------------------------------
1 | 0:00.00 | 5:04.07 | 0 | 22806
2 | 5:04.07 | 6:36.18 | 22807 | 52524
3 | 11:40.25 | 4:30.32 | 52525 | 72806
4 | 16:10.57 | 5:20.13 | 72807 | 96819
5 | 21:30.70 | 7:38.17 | 96820 | 131186
6 | 29:09.12 | 6:20.63 | 131187 | 159749
7 | 35:30.00 | 10:16.37 | 159750 | 205986
8 | 45:46.37 | 6:36.43 | 205987 | 235729
Track 1
Filename C:\Users\Murray\Music\EAC\Hilton Ruiz - - Manhattan Mambo\01 - Mambo Numero Cinco.wav
Pre-gap length 0:00:02.00
Peak level 84.9 %
Track quality 100.0 %
Test CRC CBEF6893
Copy CRC CBEF6893
Accurately ripped (confidence 5) [E30AAE33]
Copy OK
Track 2
Filename C:\Users\Murray\Music\EAC\Hilton Ruiz - - Manhattan Mambo\02 - Sure Thing.wav
Peak level 90.6 %
Track quality 100.0 %
Test CRC 1D830767
Copy CRC 1D830767
Accurately ripped (confidence 5) [434AFFB7]
Copy OK
Track 3
Filename C:\Users\Murray\Music\EAC\Hilton Ruiz - - Manhattan Mambo\03 - Michael's Mambo.wav
Pre-gap length 0:06:36.24
Peak level 97.3 %
Track quality 100.0 %
Test CRC 0E46DF02
Copy CRC 0E46DF02
Accurately ripped (confidence 5) [6D667773]
Copy OK
Track 4
Filename C:\Users\Murray\Music\EAC\Hilton Ruiz - - Manhattan Mambo\04 - Home Cookin'.wav
Pre-gap length 0:11:06.66
Peak level 91.6 %
Track quality 100.0 %
Test CRC C301EEEC
Copy CRC C301EEEC
Accurately ripped (confidence 5) [1C81235F]
Copy OK
Track 5
Filename C:\Users\Murray\Music\EAC\Hilton Ruiz - - Manhattan Mambo\05 - Overtime Mambo.wav
Pre-gap length 0:16:26.84
Peak level 99.9 %
Track quality 99.9 %
Test CRC 6115A679
Copy CRC 6115A679
Accurately ripped (confidence 5) [FBD93DCD]
Copy OK
Track 6
Filename C:\Users\Murray\Music\EAC\Hilton Ruiz - - Manhattan Mambo\06 - Giovanni Speaks.wav
Pre-gap length 0:24:05.06
Peak level 72.5 %
Track quality 100.0 %
Test CRC 9A37D5A6
Copy CRC 9A37D5A6
Accurately ripped (confidence 5) [96133EC5]
Copy OK
Track 7
Filename C:\Users\Murray\Music\EAC\Hilton Ruiz - - Manhattan Mambo\07 - Impressions.wav
Pre-gap length 0:30:25.90
Peak level 95.5 %
Track quality 100.0 %
Test CRC 0CE8AE79
Copy CRC 0CE8AE79
Accurately ripped (confidence 5) [A471D0B1]
Copy OK
Track 8
Filename C:\Users\Murray\Music\EAC\Hilton Ruiz - - Manhattan Mambo\08 - Showtime.wav
Pre-gap length 0:40:42.40
Peak level 100.0 %
Track quality 100.0 %
Test CRC 4409A09D
Copy CRC 4409A09D
Accurately ripped (confidence 5) [782BD9D9]
Copy OK
All tracks accurately ripped
No errors occurred
End of status report
 
Содержание индексной карты (.CUE)
REM GENRE Jazz
REM DATE 1992
REM DISCID 5F0C4708
REM COMMENT "ExactAudioCopy v0.99pb3"
PERFORMER "Hilton Ruiz"
TITLE "Manhattan Mambo"
FILE "01 - Mambo Numero Cinco.wav" WAVE
TRACK 01 AUDIO
TITLE "Mambo Numero Cinco"
PERFORMER "Hilton Ruiz"
INDEX 01 00:00:00
FILE "02 - Sure Thing.wav" WAVE
TRACK 02 AUDIO
TITLE "Sure Thing"
PERFORMER "Hilton Ruiz"
INDEX 01 00:00:00
TRACK 03 AUDIO
TITLE "Michael's Mambo"
PERFORMER "Hilton Ruiz"
INDEX 00 00:00:00
FILE "03 - Michael's Mambo.wav" WAVE
INDEX 01 00:00:00
TRACK 04 AUDIO
TITLE "Home Cookin'"
PERFORMER "Hilton Ruiz"
INDEX 00 04:24:57
FILE "04 - Home Cookin'.wav" WAVE
INDEX 01 00:00:00
TRACK 05 AUDIO
TITLE "Overtime Mambo"
PERFORMER "Hilton Ruiz"
INDEX 00 99:54:25
FILE "05 - Overtime Mambo.wav" WAVE
INDEX 01 00:00:00
TRACK 06 AUDIO
TITLE "Giovanni Speaks"
PERFORMER "Hilton Ruiz"
INDEX 00 94:34:12
FILE "06 - Giovanni Speaks.wav" WAVE
INDEX 01 00:00:00
TRACK 07 AUDIO
TITLE "Impressions"
PERFORMER "Hilton Ruiz"
INDEX 00 86:55:70
FILE "07 - Impressions.wav" WAVE
INDEX 01 00:00:00
TRACK 08 AUDIO
TITLE "Showtime"
PERFORMER "Hilton Ruiz"
INDEX 00 70:35:07
FILE "08 - Showtime.wav" WAVE
INDEX 01 00:00:00
 
Лог проверки качества
-----------------------
DON'T MODIFY THIS FILE
-----------------------
PERFORMER: auCDtect Task Manager, ver. 1.6.0 RC1 build 1.6.0.1
Copyright (c) 2008-2010 y-soft. All rights reserved
http://y-soft.org
ANALYZER: auCDtect: CD records authenticity detector, version 0.8.2
Copyright (c) 2004 Oleg Berngardt. All rights reserved.
Copyright (c) 2004 Alexander Djourik. All rights reserved.
FILE: 08 - Showtime.flac
Size: 37163541 Hash: EB92069097B2AEF26B04A1ECEF04AB1E Accuracy: -m0
Conclusion: CDDA 100%
Signature: C2FA07C83D8B893E9DC51507DF7B946766E5316C
FILE: 07 - Impressions.flac
Size: 58409509 Hash: 5C8F34634D13908B1DA88A5A76AA4973 Accuracy: -m0
Conclusion: CDDA 100%
Signature: CCFA5AA31A49BABBECEE08202F222EEBC5D3B0F8
FILE: 06 - Giovanni Speaks.flac
Size: 32043360 Hash: 35AA7E21BD6ACCFD72673F9BF21736DC Accuracy: -m0
Conclusion: CDDA 100%
Signature: 6D36E2518E8F38C77A38551B2258552973EA4CF4
FILE: 05 - Overtime Mambo.flac
Size: 43700602 Hash: 394A2F65B02675E941A2F11364FC74D5 Accuracy: -m0
Conclusion: CDDA 100%
Signature: 33F820C01BEF93B921EED279043F4F47FD65A5F8
FILE: 04 - Home Cookin'.flac
Size: 24645271 Hash: C071CB036A2F0BEEC2A0CAAADC59A526 Accuracy: -m0
Conclusion: CDDA 100%
Signature: D7D0CC481DF179FBA14A8D190E8B509E1F9794E4
FILE: 03 - Michael's Mambo.flac
Size: 24810853 Hash: 71A9A1F30AE89B83AF218575CC892B7F Accuracy: -m0
Conclusion: CDDA 100%
Signature: F3DB0EB492E63D79EC4C3A085223D3EF670DC995
FILE: 02 - Sure Thing.flac
Size: 37230097 Hash: 6974117D8E12F328CC0D99E14D40B339 Accuracy: -m0
Conclusion: CDDA 100%
Signature: CAC66169FAB9D7956F7688FDB52CB35BD6BC4489
FILE: 01 - Mambo Numero Cinco.flac
Size: 27688211 Hash: 8602DBB83CF9ADA0A41B400E4F5FFF2D Accuracy: -m0
Conclusion: CDDA 100%
Signature: FCC82CCD18E09057FCA1FDF5A54993CDCC814D09
 
Review by Scott Yanow
Pianist Hilton Ruiz is heard with a superior group of musicians adept at playing both bebop and Latin jazz. With a front line of trumpeter Charlie Sepulveda, David Sanchez on tenor and trombonist Papo Vazquez in addition to four percussionists, Ruiz's nonet displays plenty of fire on a set of originals, Pérez Prado's "Mambo Numero Cinco" and John Coltrane's "Impressions."
15:42
473
Нет комментариев. Ваш будет первым!