Вы используете незарегистрированную версию компонента "Вкладки"!

Поиск

(Latin Jazz, Afro-Cuban Jazz) [CD] Dayme Arocena - One Takes EP - 2016, FLAC (tracks+.cue), lossless

(Latin Jazz, Afro-Cuban Jazz) [CD] Dayme Arocena - One Takes EP - 2016, FLAC (tracks+.cue), lossless
Треклист:
Dayme Arocena - One Takes EP
Жанр: Latin Jazz, Afro-Cuban Jazz
Носитель: CD
Страна-производитель диска (релиза): Великобритания
Год издания: 2016
Издатель (лейбл): Brownswood Recordings
Номер по каталогу: BWOOD0151CD
Страна исполнителя (группы): Куба
Аудиокодек: FLAC (*.flac)
Тип рипа: tracks+.cue
Битрейт аудио: lossless
Продолжительность: 41:35
Источник (релизер): passtheheadphones
Наличие сканов в содержимом раздачи: сетевые
Треклист:
01. Gods of Yoruba (Silver) - 8:54
02. African Sunshine (Gale) - 9:52
03. El 456 (Brito-Brito) - 3:48
04. Asking Eyes (Gouiffe-Renzulli) - 2:44
05. Stuck (Everett) - 5:44
06. Muy cerquita de ti (Close to You) (feat. Jose Pilar, Jesus Dedeu, Luis Stock, Ruben Bulnes, Julio Padron) (Bacharach-David-Arocena-Padron-Pilar-Bulnes) - 10:33
 
Лог создания рипа
Exact Audio Copy V1.0 beta 4 from 7. December 2014
EAC extraction logfile from 7. July 2016, 11:29
Daymé Arocena / One Takes
Used drive  : PIONEER DVD-RW  DVR-116D   Adapter: 1  ID: 0
Read mode               : Secure
Utilize accurate stream : Yes
Defeat audio cache      : Yes
Make use of C2 pointers : No
Read offset correction                      : 96
Overread into Lead-In and Lead-Out          : No
Fill up missing offset samples with silence : Yes
Delete leading and trailing silent blocks   : No
Null samples used in CRC calculations       : Yes
Used interface                              : Native Win32 interface for Win NT & 2000
Gap handling                                : Appended to previous track
Used output format              : User Defined Encoder
Selected bitrate                : 1024 kBit/s
Quality                         : High
Add ID3 tag                     : No
Command line compressor         : C:\Program Files (x86)\Exact Audio Copy\Flac\flac.exe
Additional command line options : -8 -V -T "ARTIST=%artist%" -T "TITLE=%title%" -T "ALBUM=%albumtitle%" -T "DATE=%year%" -T "TRACKNUMBER=%tracknr%" -T "GENRE=%genre%" -T "PERFORMER=%albuminterpret%" -T "COMPOSER=%composer%" %haslyrics%--tag-from-file=LYRICS="%lyricsfile%"%haslyrics% -T "ALBUMARTIST=%albumartist%" -T "DISCNUMBER=%cdnumber%" -T "TOTALDISCS=%totalcds%" -T "TOTALTRACKS=%numtracks%" -T "COMMENT=%comment%" %source% -o %dest%
TOC of the extracted CD
     Track |   Start  |  Length  | Start sector | End sector
    ---------------------------------------------------------
        1  |  0:00.00 |  8:54.01 |         0    |    40050
        2  |  8:54.01 |  9:52.37 |     40051    |    84487
        3  | 18:46.38 |  3:48.22 |     84488    |   101609
        4  | 22:34.60 |  2:44.29 |    101610    |   113938
        5  | 25:19.14 |  5:44.36 |    113939    |   139774
        6  | 31:03.50 | 10:33.22 |    139775    |   187271
Track  1
     Filename C:\new flac rips\Daymé Arocena - One Takes - 2016 [FLAC CD]\01 Gods of Yoruba.wav
     Pre-gap length  0:00:02.00
     Peak level 100.0 %
     Extraction speed 4.9 X
     Track quality 100.0 %
     Test CRC 61AE79DD
     Copy CRC 61AE79DD
     Track not present in AccurateRip database
     Copy OK
Track  2
     Filename C:\new flac rips\Daymé Arocena - One Takes - 2016 [FLAC CD]\02 African Sunshine.wav
     Pre-gap length  0:00:02.00
     Peak level 100.0 %
     Extraction speed 5.9 X
     Track quality 100.0 %
     Test CRC 37E16985
     Copy CRC 37E16985
     Track not present in AccurateRip database
     Copy OK
Track  3
     Filename C:\new flac rips\Daymé Arocena - One Takes - 2016 [FLAC CD]\03 El 456.wav
     Pre-gap length  0:00:02.00
     Peak level 93.3 %
     Extraction speed 5.9 X
     Track quality 100.0 %
     Test CRC 2834BECF
     Copy CRC 2834BECF
     Track not present in AccurateRip database
     Copy OK
Track  4
     Filename C:\new flac rips\Daymé Arocena - One Takes - 2016 [FLAC CD]\04 Asking Eyes.wav
     Pre-gap length  0:00:02.00
     Peak level 100.0 %
     Extraction speed 5.8 X
     Track quality 100.0 %
     Test CRC CEB0919D
     Copy CRC CEB0919D
     Track not present in AccurateRip database
     Copy OK
Track  5
     Filename C:\new flac rips\Daymé Arocena - One Takes - 2016 [FLAC CD]\05 Stuck.wav
     Pre-gap length  0:00:02.00
     Peak level 99.9 %
     Extraction speed 6.7 X
     Track quality 100.0 %
     Test CRC 280B3BFF
     Copy CRC 280B3BFF
     Track not present in AccurateRip database
     Copy OK
Track  6
     Filename C:\new flac rips\Daymé Arocena - One Takes - 2016 [FLAC CD]\06 Muy cerquita de ti (Close to You) feat. Jose Pilar Jesus Dedeu, Luis Stock, Ruben Bulnes, & Julio Padrón (Bonus Track).wav
     Pre-gap length  0:00:02.11
     Peak level 100.0 %
     Extraction speed 7.5 X
     Track quality 100.0 %
     Test CRC D947422B
     Copy CRC D947422B
     Track not present in AccurateRip database
     Copy OK
None of the tracks are present in the AccurateRip database
No errors occurred
End of status report
---- CUETools DB Plugin V2.1.4
[CTDB TOCID: 0VFRmUAiQMRmWPBqMg4F4kOIsuI-] found
Submit result: 0VFRmUAiQMRmWPBqMg4F4kOIsuI- has been confirmed
Track | CTDB Status
  1   | (1/1) Accurately ripped
  2   | (1/1) Accurately ripped
  3   | (1/1) Accurately ripped
  4   | (1/1) Accurately ripped
  5   | (1/1) Accurately ripped
  6   | (1/1) Accurately ripped
==== Log checksum 524A7845C3DEA240F0DBB4461ECD991C9201A8425D8FFAF4D6D5032598D3DADD ====
 
 
Содержание индексной карты (.CUE)
REM GENRE Jazz
REM DATE 2016
REM DISCID 4809C006
REM COMMENT "ExactAudioCopy v1.0b4"
PERFORMER "Dayme Arocena"
TITLE "One Takes"
FILE "01 - Gods of Yoruba.wav" WAVE
  TRACK 01 AUDIO
    TITLE "Gods of Yoruba"
    PERFORMER "Dayme Arocena"
    INDEX 01 00:00:00
  TRACK 02 AUDIO
    TITLE "African Sunshine"
    PERFORMER "Dayme Arocena"
    INDEX 00 08:52:01
FILE "02 - African Sunshine.wav" WAVE
    INDEX 01 00:00:00
  TRACK 03 AUDIO
    TITLE "El 456"
    PERFORMER "Dayme Arocena"
    INDEX 00 09:50:37
FILE "03 - El 456.wav" WAVE
    INDEX 01 00:00:00
  TRACK 04 AUDIO
    TITLE "Asking Eyes"
    PERFORMER "Dayme Arocena"
    INDEX 00 03:46:22
FILE "04 - Asking Eyes.wav" WAVE
    INDEX 01 00:00:00
  TRACK 05 AUDIO
    TITLE "Stuck"
    PERFORMER "Dayme Arocena"
    INDEX 00 02:42:29
FILE "05 - Stuck.wav" WAVE
    INDEX 01 00:00:00
  TRACK 06 AUDIO
    TITLE "Muy cerquita de ti (Close to You)"
    PERFORMER "Dayme Arocena"
    INDEX 00 05:42:25
FILE "06 - Muy cerquita de ti (Close to You).wav" WAVE
    INDEX 01 00:00:00
 
 
Отчет CUETools
[CUETools log; Date: 08.02.2017 16:17:51; Version: 2.1.5]
[CTDB TOCID: 0VFRmUAiQMRmWPBqMg4F4kOIsuI-] found.
Track | CTDB Status
  1   | (6/6) Accurately ripped
  2   | (6/6) Accurately ripped
  3   | (6/6) Accurately ripped
  4   | (6/6) Accurately ripped
  5   | (6/6) Accurately ripped
  6   | (6/6) Accurately ripped
[AccurateRip ID: 000a2dff-0034c8b8-4809c006] disk not present in database.
Track Peak [ CRC32  ] [W/O NULL] [  LOG   ]
 --  100,0 [AF3A6AE4] [432CAC08]
 01  100,0 [61AE79DD] [12CABB6E]   CRC32
 02  100,0 [37E16985] [37EB16DC]   CRC32
 03   93,3 [2834BECF] [7B0F3C56]   CRC32
 04  100,0 [CEB0919D] [BDCBF939]   CRC32
 05   99,9 [280B3BFF] [3C8D8B7B]   CRC32
 06  100,0 [D947422B] [3BA9C790]   CRC32
 
 
Об альбоме (сборнике)
The One Takes EP finds Daymé Arocena bouncing around ideas with label boss Gilles Peterson to put her unique spin on five different covers. Re-imagining cuts ranging from Italian obscurities to US house heroes, the sessions (as you might guess from the title) were about taking down whichever ideas came first. Working in a tradition of covers that's long been ingrained in jazz as well as Latin music, One Takes finds them taking that approach and running with it.
It's a perfect vehicle for Daymé to bridge musical worlds in a way that's always come naturally. With an upbringing split between classical training, early jazz greats like Billie Holiday and the spiritual and musical foundations of the Santería religion, she's grown up seeing the bigger picture.
Daymé's versatility meant he could throw dancefloor shakers at her – like Peven Everett's 'Stuck' – along with super-rare cuts like Rafaella Renzulli's 'Asking Eyes', which he witnessed Patrick Forge deploy to maximum effect on the dancefloor at last year's Dingwalls reunion.
'Gods Of Yoruba', meanwhile, is a Horace Silver composition and 'El 456' is a Los Britos track which Gilles says “has always been a bit of a joker card for me at gigs”. 'African Sunshine', finally, is by Sun R Arkestra initiate Eddie Gale. The finished EP is almost as much a tour through interesting corners of Peterson's record collection as it is through Daymé's range as a performer.
Digital album & CD include bonus track: Muy cerquita de ti (Close to You).
 
 
Состав
Dayme Arocena, Jesus Dedeu (#6), Carlos Bravo (#6), Luis Stock (#6), Raysel Sotomayor (#6), Yassel Sotomayor (#6), Jose Pilar (#6), Ruben Bulnes (#6) - vocals
Jorge Luis Lagarza - piano
Gaston Joya - double bass
Ruly Herrera - drums (#1-5)
Yaroldy Abreu (#1-3,5), Barbaro Y. Crespo (#6), Joel Bulnes (#6), Lucumi (#6), Ramon Tamayo (#6), Yovani Diaz (#6) - percussion
Emir Santacruz (#1,3,5), Carlos Miyares (#2) - tenor saxophone
Yoandy Argudin - trombone (#1-3,5)
Julio Padron - trumpet, vocals (#6)
Recorded at Egrem Studios, Havana.
Any questions - support@pro-jazz.com. Есть вопросы - support@pro-jazz.com
23:22
353
Нет комментариев. Ваш будет первым!