Поиск

(Latin Jazz, Afro-Cuban Jazz) [CD] Chico O'Farrill - Carambola - 2000, FLAC (tracks+.cue), lossless

(Latin Jazz, Afro-Cuban Jazz) [CD] Chico O'Farrill - Carambola - 2000, FLAC (tracks+.cue), lossless
Chico O'Farrill - Carambola
Жанр: Latin Jazz, Afro-Cuban Jazz
Носитель: CD
Страна-производитель диска (релиза): США
Год издания: 2000
Издатель (лейбл): Milestone Records
Номер по каталогу: MCD-9308-2
Аудиокодек: FLAC (*.flac)
Тип рипа: tracks+.cue
Битрейт аудио: lossless
Продолжительность: 66:03
Источник (релизер): What.CD
Наличие сканов в содержимом раздачи: нет
Треклист:
01. Carambola (5:19)
02. The Aztec Suite (15:11)
03. Delirio (4:25)
04. Havana Blues (5:28)
05. Vanna's Song (3:22)
06. Crazy City (...But I Love It) (3:56)
07. Waller Exercise (1:48)
08. Rhapsody for Two Islands (3:35)
09. Oye Mi Rumba (2:19)
10. Enamorado (Falling in Love) (4:46)
11. Afro-Cuban Jazz Suite (15:54)
 
Лог создания рипа
Exact Audio Copy V1.1 from 23. June 2015
EAC extraction logfile from 4. August 2016, 7:31
Chico O’Farrill / Carambola
Used drive : HL-DT-STDVDRAM GP50NB40 Adapter: 1 ID: 0
Read mode : Secure
Utilize accurate stream : Yes
Defeat audio cache : Yes
Make use of C2 pointers : No
Read offset correction : 6
Overread into Lead-In and Lead-Out : No
Fill up missing offset samples with silence : Yes
Delete leading and trailing silent blocks : No
Null samples used in CRC calculations : Yes
Used interface : Native Win32 interface for Win NT & 2000
Gap handling : Appended to previous track
Used output format : User Defined Encoder
Selected bitrate : 1024 kBit/s
Quality : High
Add ID3 tag : No
Command line compressor : C:\Program Files (x86)\Exact Audio Copy\Flac\flac.exe
Additional command line options : -8 -e -V -T "ARTIST=%artist%" -T "TITLE=%title%" -T "ALBUM=%albumtitle%" -T "DATE=%year%" -T "TRACKNUMBER=%tracknr%" -T "GENRE=%genre%" -T "PERFORMER=%albuminterpret%" -T "COMPOSER=%composer%" %haslyrics%--tag-from-file=LYRICS="%lyricsfile%"%haslyrics% -T "ALBUMARTIST=%albumartist%" -T "DISCNUMBER=%cdnumber%" -T "TOTALDISCS=%totalcds%" -T "TOTALTRACKS=%numtracks%" -T "COMMENT=%comment%" %source% -o %dest%
TOC of the extracted CD
Track | Start | Length | Start sector | End sector
---------------------------------------------------------
1 | 0:00.00 | 5:18.52 | 0 | 23901
2 | 5:18.52 | 15:10.58 | 23902 | 92209
3 | 20:29.35 | 4:24.40 | 92210 | 112049
4 | 24:54.00 | 5:28.22 | 112050 | 136671
5 | 30:22.22 | 3:21.73 | 136672 | 151819
6 | 33:44.20 | 3:56.00 | 151820 | 169519
7 | 37:40.20 | 1:47.55 | 169520 | 177599
8 | 39:28.00 | 3:34.70 | 177600 | 193719
9 | 43:02.70 | 2:19.27 | 193720 | 204171
10 | 45:22.22 | 4:46.33 | 204172 | 225654
11 | 50:08.55 | 15:53.65 | 225655 | 297194
Track 1
Filename C:\Users\plasm\Music\Chico O'Farrill - (2000) Carambola - FLAC\01 Carambola.wav
Pre-gap length 0:00:02.00
Peak level 100.0 %
Extraction speed 1.2 X
Track quality 99.9 %
Test CRC F9D962FC
Copy CRC F9D962FC
Accurately ripped (confidence 5) [61736668] (AR v2)
Copy OK
Track 2
Filename C:\Users\plasm\Music\Chico O'Farrill - (2000) Carambola - FLAC\02 The Aztec Suite.wav
Pre-gap length 0:00:00.60
Peak level 100.0 %
Extraction speed 1.8 X
Track quality 100.0 %
Test CRC 18FC6B67
Copy CRC 18FC6B67
Accurately ripped (confidence 4) [F4B7D2D5] (AR v2)
Copy OK
Track 3
Filename C:\Users\plasm\Music\Chico O'Farrill - (2000) Carambola - FLAC\03 Delirio.wav
Pre-gap length 0:00:03.00
Peak level 100.0 %
Extraction speed 1.8 X
Track quality 100.0 %
Test CRC 1422D6E8
Copy CRC 1422D6E8
Accurately ripped (confidence 5) [9CF7DF26] (AR v2)
Copy OK
Track 4
Filename C:\Users\plasm\Music\Chico O'Farrill - (2000) Carambola - FLAC\04 Havana Blues.wav
Pre-gap length 0:00:00.63
Peak level 100.0 %
Extraction speed 2.0 X
Track quality 100.0 %
Test CRC 767CF16C
Copy CRC 767CF16C
Accurately ripped (confidence 5) [119E0B3F] (AR v2)
Copy OK
Track 5
Filename C:\Users\plasm\Music\Chico O'Farrill - (2000) Carambola - FLAC\05 Vanna's Song.wav
Pre-gap length 0:00:00.70
Peak level 100.0 %
Extraction speed 2.0 X
Track quality 100.0 %
Test CRC 16B9E9D3
Copy CRC 16B9E9D3
Accurately ripped (confidence 5) [5BF27B5F] (AR v2)
Copy OK
Track 6
Filename C:\Users\plasm\Music\Chico O'Farrill - (2000) Carambola - FLAC\06 Crazy City (...But I Love It).wav
Pre-gap length 0:00:00.50
Peak level 100.0 %
Extraction speed 2.1 X
Track quality 100.0 %
Test CRC A58F9080
Copy CRC A58F9080
Accurately ripped (confidence 5) [708DB483] (AR v2)
Copy OK
Track 7
Filename C:\Users\plasm\Music\Chico O'Farrill - (2000) Carambola - FLAC\07 Waller Exercise.wav
Pre-gap length 0:00:00.45
Peak level 95.5 %
Extraction speed 1.9 X
Track quality 100.0 %
Test CRC AF57CE44
Copy CRC AF57CE44
Accurately ripped (confidence 5) [0185D566] (AR v2)
Copy OK
Track 8
Filename C:\Users\plasm\Music\Chico O'Farrill - (2000) Carambola - FLAC\08 Rhapsody For Two Islands.wav
Pre-gap length 0:00:00.18
Peak level 100.0 %
Extraction speed 2.2 X
Track quality 100.0 %
Test CRC C8685D90
Copy CRC C8685D90
Accurately ripped (confidence 4) [877AD0EA] (AR v2)
Copy OK
Track 9
Filename C:\Users\plasm\Music\Chico O'Farrill - (2000) Carambola - FLAC\09 Oye Mi Rumba.wav
Peak level 100.0 %
Extraction speed 2.1 X
Track quality 100.0 %
Test CRC A3600A0B
Copy CRC A3600A0B
Accurately ripped (confidence 3) [8FA59ECC] (AR v2)
Copy OK
Track 10
Filename C:\Users\plasm\Music\Chico O'Farrill - (2000) Carambola - FLAC\10 Enamorado (Falling in Love).wav
Peak level 100.0 %
Extraction speed 2.4 X
Track quality 100.0 %
Test CRC 2AF05055
Copy CRC 2AF05055
Accurately ripped (confidence 5) [2E3B0158] (AR v2)
Copy OK
Track 11
Filename C:\Users\plasm\Music\Chico O'Farrill - (2000) Carambola - FLAC\11 Afro-Cuban Jazz Suite.wav
Peak level 100.0 %
Extraction speed 0.7 X
Track quality 99.9 %
Test CRC C9A899AA
Copy CRC C9A899AA
Accurately ripped (confidence 3) [3D3BA3F2] (AR v2)
Copy OK
All tracks accurately ripped
No errors occurred
End of status report
---- CUETools DB Plugin V2.1.6
[CTDB TOCID: vwA.L.3Z0.3yWPO.AIKHlFqdYDE-] found
Submit result: vwA.L.3Z0.3yWPO.AIKHlFqdYDE- has been confirmed
Track | CTDB Status
1 | (5/5) Accurately ripped
2 | (3/5) Accurately ripped
3 | (4/5) Accurately ripped
4 | (4/5) Accurately ripped
5 | (5/5) Accurately ripped
6 | (5/5) Accurately ripped
7 | (3/5) Accurately ripped
8 | (4/5) Accurately ripped
9 | (4/5) Accurately ripped
10 | (4/5) Accurately ripped
11 | (4/5) Accurately ripped
==== Log checksum 79E7D3AAEFEE8DA55F08A55BF33A131C659C8FCBE681668974C30EF8DABF0E9D ====
 
Содержание индексной карты (.CUE)
REM GENRE Jazz
REM DATE 2000
REM DISCID 790F7A0B
REM COMMENT "ExactAudioCopy v1.1"
PERFORMER "Chico O'Farrill"
TITLE "Carambola"
FILE "01 - Carambola.wav" WAVE
TRACK 01 AUDIO
TITLE "Carambola"
PERFORMER "Chico O'Farrill"
INDEX 01 00:00:00
TRACK 02 AUDIO
TITLE "The Aztec Suite"
PERFORMER "Chico O'Farrill"
INDEX 00 05:17:67
FILE "02 - The Aztec Suite.wav" WAVE
INDEX 01 00:00:00
TRACK 03 AUDIO
TITLE "Delirio"
PERFORMER "Chico O'Farrill"
INDEX 00 15:07:58
FILE "03 - Delirio.wav" WAVE
INDEX 01 00:00:00
TRACK 04 AUDIO
TITLE "Havana Blues"
PERFORMER "Chico O'Farrill"
INDEX 00 04:23:52
FILE "04 - Havana Blues.wav" WAVE
INDEX 01 00:00:00
TRACK 05 AUDIO
TITLE "Vanna's Song"
PERFORMER "Chico O'Farrill"
INDEX 00 05:27:27
FILE "05 - Vanna's Song.wav" WAVE
INDEX 01 00:00:00
TRACK 06 AUDIO
TITLE "Crazy City (...But I Love It)"
PERFORMER "Chico O'Farrill"
INDEX 00 03:21:23
FILE "06 - Crazy City (...But I Love It).wav" WAVE
INDEX 01 00:00:00
TRACK 07 AUDIO
TITLE "Waller Exercise"
PERFORMER "Chico O'Farrill"
INDEX 00 03:55:30
FILE "07 - Waller Exercise.wav" WAVE
INDEX 01 00:00:00
TRACK 08 AUDIO
TITLE "Rhapsody for Two Islands"
PERFORMER "Chico O'Farrill"
INDEX 00 01:47:37
FILE "08 - Rhapsody for Two Islands.wav" WAVE
INDEX 01 00:00:00
FILE "09 - Oye Mi Rumba.wav" WAVE
TRACK 09 AUDIO
TITLE "Oye Mi Rumba"
PERFORMER "Chico O'Farrill"
INDEX 01 00:00:00
FILE "10 - Enamorado (Falling in Love).wav" WAVE
TRACK 10 AUDIO
TITLE "Enamorado (Falling in Love)"
PERFORMER "Chico O'Farrill"
INDEX 01 00:00:00
FILE "11 - Afro-Cuban Jazz Suite.wav" WAVE
TRACK 11 AUDIO
TITLE "Afro-Cuban Jazz Suite"
PERFORMER "Chico O'Farrill"
INDEX 01 00:00:00
 
Отчет CUETools
[CUETools log; Date: 11.06.2017 16:56:27; Version: 2.1.5]
[CTDB TOCID: vwA.L.3Z0.3yWPO.AIKHlFqdYDE-] found.
Track | CTDB Status
1 | (7/7) Accurately ripped
2 | (4/7) Accurately ripped
3 | (6/7) Accurately ripped
4 | (6/7) Accurately ripped
5 | (7/7) Accurately ripped
6 | (7/7) Accurately ripped
7 | (5/7) Accurately ripped
8 | (6/7) Accurately ripped
9 | (6/7) Accurately ripped
10 | (6/7) Accurately ripped
11 | (6/7) Accurately ripped
[AccurateRip ID: 001b3ac4-00e1f424-790f7a0b] found.
Track [ CRC | V2 ] Status
01 [afe75158|61736668] (05+05/17) Accurately ripped
02 [277dd464|f4b7d2d5] (05+04/17) Accurately ripped
03 [12a657d4|9cf7df26] (05+05/18) Accurately ripped
04 [70f129ff|119e0b3f] (04+05/16) Accurately ripped
05 [7fb5d83b|5bf27b5f] (05+05/18) Accurately ripped
06 [6a5ea708|708db483] (05+05/19) Accurately ripped
07 [a3336a6a|0185d566] (05+05/18) Accurately ripped
08 [bfe47e93|877ad0ea] (05+04/17) Accurately ripped
09 [c6d33cb4|8fa59ecc] (05+03/16) Accurately ripped
10 [3a265459|2e3b0158] (05+05/18) Accurately ripped
11 [63791481|3d3ba3f2] (04+03/13) Accurately ripped
Offsetted by -659:
01 [f7995b75] (02/17) Accurately ripped
02 [b7504d66] (00/17) No match (V2 was not tested)
03 [7d1c509c] (02/18) Accurately ripped
04 [e5b4dba8] (02/16) Accurately ripped
05 [399e8ae6] (02/18) Accurately ripped
06 [efc50d48] (03/19) Accurately ripped
07 [1b217e33] (02/18) Accurately ripped
08 [afba120b] (02/17) Accurately ripped
09 [e9e01ba7] (02/16) Accurately ripped
10 [3683dc1f] (02/18) Accurately ripped
11 [f12ae330] (02/13) Accurately ripped
Track Peak [ CRC32 ] [W/O NULL] [ LOG ]
-- 99,9 [D21E2F0F] [35DC0031]
01 99,9 [F9D962FC] [CC488706] CRC32
02 99,9 [18FC6B67] [D84C2408] CRC32
03 99,9 [1422D6E8] [D35CD999] CRC32
04 99,9 [767CF16C] [B3A5EB64] CRC32
05 99,9 [16B9E9D3] [56219C35] CRC32
06 99,9 [A58F9080] [0821D612] CRC32
07 95,5 [AF57CE44] [44F8D979] CRC32
08 99,9 [C8685D90] [A7698366] CRC32
09 99,9 [A3600A0B] [9FF84664] CRC32
10 99,9 [2AF05055] [04993308] CRC32
11 99,9 [C9A899AA] [2FFD7FE4] CRC32
 
AllMusic Review by Richard S. Ginell
The astounding comeback of Chico O'Farrill at age 79 continued with this terrific collection of mostly Afro-Cuban styled compositions -- some brand-new, some more than half a century old. Originally written for Dizzy Gillespie, the swinging title tune takes on a more complex Afro-Cuban treatment this time, with Michael Mossman capably taking on the trumpet work. "The Aztec Suite," written for Art Farmer, comes together smoothly and cohesively, with even more spectacular work by Mossman -- and "Crazy City (...But I Love It)" is "Gone City" (recorded by Machito in 1949) in a more refined, shipshape, somewhat less frantic performance. The oldest piece, "Oye Mi Rumba" (1945), lures singer Graciela out of retirement for some endearingly authentic atmosphere. Don't overlook newer material like O'Farrill's treatment of "Delirio" -- a beautiful bolero, very sophisticated in harmony -- and "Rhapsody for Two Islands," a flamboyant little piece designed to evoke Cuba and Manhattan with a sudden, broadly-paced solo piano break that explicitly quotes "Rhapsody in Blue." Yet the highlight of the CD is undoubtedly the amazingly successful re-recording of O'Farrill's visionary "Afro-Cuban Jazz Suite," 50 years after the original Machito version was cut. His crisply executing 21st Century orchestra makes the material seem even more emotionally moving than before, although you do miss the impossibly fluid alto of Charlie Parker (guest soloist Mario Rivera makes an honorable stab at Bird's part) and irreplaceably wild Buddy Rich drums from the Machito record. This is a must-hear for Latin jazz lovers.
 
Состав
Graciela Perez Grillo - vocals
Lewis Kahn - violin
Mario Rivera - flute, alto saxophone
Jimmy Cozier, Peter Brainin, Marshall McDonald - saxophone
Mike Migliore - tenor saxophone
Matt Hilgenberg, Jon Owens, Kenny Rampton, Michael Mossman, Jim Seeley - trumpet
Vincent Chancey, Chris Komer - French horn
Gary Valente, Papo Vazquez, Sam Burtis, Jack Jeffers - trombone
Arturo O'Farrill - piano
Steve Berrios - drums, congas, bata, claves, maracas, shekere, timbales, percussion
Victor Jones - drums
Joe Gonzalez - bongos, bells
Chico O'Farrill - composer, arranger, conductor
Recorded at Clinton Recording Studios, New York in July 2000.
01:13
267
Нет комментариев. Ваш будет первым!