Поиск

(Latin Folk, Post-Bop, Latin Jazz, World Fusion) Charlie Sepulveda - Algo Nuestro (Our Thing) - 1993, FLAC (image+.cue), lossless

Треклист:
Charlie Sepulveda - Algo Nuestro (Our Thing)
Жанр: Latin Folk, Post-Bop, Latin Jazz, World Fusion
Страна-производитель диска: США
Год издания: 1993
Издатель (лейбл): Antilles
Номер по каталогу: 314 512768-2
Аудиокодек: FLAC (*.flac)
Тип рипа: image+.cue
Битрейт аудио: lossless
Продолжительность: 54:50
Источник (релизер): dreadbull (hqshare)
Наличие сканов в содержимом раздачи: да
Треклист:
01. El Gringo /Sepulveda/ 4:22
02. Mal Social /D. Sanchez/ 9:19
03. Algo Nuestro /Sepulveda/ 5:47
04. Puerto Rico /E. Palmieri/ 6:13
05. Nina's Mood /D. Sanchez/ 7:45
06. Mastery Of All Situations /E. Simon/ 5:09
07. La Mentira /A. Carrillo/ 5:13
08. Episode From A Village Dance /D. Brown/ 5:35
09. Mr. BB /Sepulveda/ 5:13.
 
Лог создания рипа
EAC extraction logfile from 25. March 2011, 15:51 for CD
Charlie Sepulveda / Algo Nuestro (Our Thing)
Used drive : ASUS DRW-22B2L Adapter: 0 ID: 1
Read mode : Secure with NO C2, accurate stream, disable cache
Read offset correction : 6
Overread into Lead-In and Lead-Out : No
Used output format : Internal WAV Routines
44.100 Hz; 16 Bit; Stereo
Other options :
Fill up missing offset samples with silence : Yes
Delete leading and trailing silent blocks : No
Installed external ASPI interface
Range status and errors
Selected range
Filename D:\Donkey Files\Charlie Sepulveda - Algo Nuestro (1993, Antilles) [eac-ape-scans] byDrBull\CDImage.wav
Peak level 100.0 %
Range quality 100.0 %
CRC 33841B35
Copy OK
No errors occured
End of status report
 
Содержание индексной карты (.CUE)
PERFORMER "Charlie Sepulveda"
TITLE "Algo Nuestro (Our Thing)"
FILE "Charlie Sepulveda - Algo Nuestro.wav" WAVE
TRACK 01 AUDIO
TITLE "El Gringo"
PERFORMER "Charlie Sepulveda"
INDEX 00 00:00:00
INDEX 01 00:00:32
TRACK 02 AUDIO
TITLE "Mal Social"
PERFORMER "Charlie Sepulveda"
INDEX 00 04:23:35
INDEX 01 04:24:00
TRACK 03 AUDIO
TITLE "Algo Nuestro"
PERFORMER "Charlie Sepulveda"
INDEX 00 13:44:40
INDEX 01 13:45:42
TRACK 04 AUDIO
TITLE "Puerto Rico"
PERFORMER "Charlie Sepulveda"
INDEX 00 19:32:67
INDEX 01 19:33:47
TRACK 05 AUDIO
TITLE "Nina's Mood"
PERFORMER "Charlie Sepulveda"
INDEX 00 25:48:57
INDEX 01 25:50:00
TRACK 06 AUDIO
TITLE "Mastery of All Situations"
PERFORMER "Charlie Sepulveda"
INDEX 01 33:34:62
TRACK 07 AUDIO
TITLE "La Mentira"
PERFORMER "Charlie Sepulveda"
INDEX 01 38:47:10
TRACK 08 AUDIO
TITLE "Episode from a Village Dance"
PERFORMER "Charlie Sepulveda"
INDEX 00 44:01:12
INDEX 01 44:02:07
TRACK 09 AUDIO
TITLE "Mr. BB"
PERFORMER "Charlie Sepulveda"
INDEX 01 49:37:02
 
Review by Scott Yanow
On Algo Nuestro, trumpeter Charlie Sepulveda leads a sextet that includes the up and coming tenor saxophonist David Sanchez, pianist Edward Simon, bassist Andy Gonzalez, Adam Cruz on drums, and Richie Flores on congas and bongos, with a few guest percussionists and bassists; trombonist Steve Turre sits in on Eddie Palmieri's "Puerto Rico." The music is post-bop jazz with a strong dose of Latin and Puerto Rican rhythms. The solos of Sepluveda and Sanchez are consistently passionate, while Simon shows a great deal of potential during his spots. The band is quite strong on the nine obscurities (six of which come from Sepulveda, Sanchez, or Simon), making this a CD well worth searching for.
 
Состав
Charlie Sepulveda - trumpet;
David Sanchez - tenor & soprano sax (#1-6,8,9);
Edward Simon - piano;
Andy Gonzalez - bass;
Adam Cruz - drums;
Richie Flores - conga, bongos (#1-4,6,8,9).
Guests:
Oscar Stagnaro - electric bass (#3);
Tito Rodriguez - guicharo (#3);
Steve Turre - trombone (#4);
Johnny Torres - baby bass (#4);
Pete Rodriguez, Jr. - maracas (#4);
Jimmy Delgado - cowbell (#4);
Edgardo Miranda - cuatro (#9).
#1,3,4,9: New York City, March 11&12, 1992.
#2,5-8: New York City, May 14, 1992.
Взамен ушедшей в архив.
05:32
240
Нет комментариев. Ваш будет первым!