Поиск

(Latin) [CD] Ibrahim Ferrer (member of the Buena Vista Social Club) - Buenos Hermanos - 2003, FLAC (image+.cue), lossless

(Latin) [CD] Ibrahim Ferrer (member of the Buena Vista Social Club) - Buenos Hermanos - 2003, FLAC (image+.cue), lossless
Ibrahim FerrerBUENOS HERMANOS
Жанр: Latin
Носитель: CD
Страна-производитель диска: UK
Год издания: 2003
Издатель (лейбл): World Circuit
Номер по каталогу: WCD 065
Страна: Cuba
Аудиокодек: FLAC (*.flac)
Тип рипа: image+.cue
Битрейт аудио: lossless
Продолжительность: 00:55:25
Релизер: pepeillo001
Наличие сканов: обложки и буклет
Ибраим Феррер (исп. Ibrahim Ferrer Planas; 20 февраля 1927, Сан-Луис близ Сантьяго-де-Куба — 6 августа 2005, Гавана) — кубинский музыкант, прославившийся как певец. На родине его называли «супердедушкой» (исп. Superabuelo). Участник знаменитого проекта Buena Vista Social Club. В 2004 году Феррер получил «Грэмми» за свой альбом «Buenos hermanos» в категории «Best Traditional Tropical Latin Album». В 2000 году в возрасте 72 лет Феррер стал обладателем латинской «Грэмми» в категории «Лучший дебют»

 
Треклист
01. Boquinene (3:34)
02. Buenos Hermanos (4:38)
03. La Musica Cubana (5:11)
04. Guaguanco Callejero (4:37)
05. Naufragio (3:51)
06. Como El Arrullo De Palma (4:03)
07. Perfume De Gardenias (4:44)
08. Mil Congojas (3:34)
09. Hay Que Entrarle A Palos Ese (4:03)
10. No Tiene Telarana (5:24)
11. Fuiste Cruel (4:29)
12. Boliviana (3:50)
13. Oye El Consejo (3:26)
 
Отчёт EAC
Exact Audio Copy V1.0 beta 3 from 29. August 2011
EAC extraction logfile from 1. October 2013, 20:32
Ibrahim Ferrer / Buenos Hermanos
Used drive : hp CDDVDW SN-208BB Adapter: 0 ID: 0
Read mode : Secure
Utilize accurate stream : Yes
Defeat audio cache : Yes
Make use of C2 pointers : No
Read offset correction : 6
Overread into Lead-In and Lead-Out : No
Fill up missing offset samples with silence : Yes
Delete leading and trailing silent blocks : No
Null samples used in CRC calculations : Yes
Used interface : Installed external ASPI interface
Used output format : Internal WAV Routines
Sample format : 44.100 Hz; 16 Bit; Stereo
TOC of the extracted CD
Track | Start | Length | Start sector | End sector
---------------------------------------------------------
1 | 0:00.00 | 3:34.09 | 0 | 16058
2 | 3:34.09 | 4:37.38 | 16059 | 36871
3 | 8:11.47 | 5:11.22 | 36872 | 60218
4 | 13:22.69 | 4:36.65 | 60219 | 80983
5 | 17:59.59 | 3:51.34 | 80984 | 98342
6 | 21:51.18 | 4:03.16 | 98343 | 116583
7 | 25:54.34 | 4:44.06 | 116584 | 137889
8 | 30:38.40 | 3:34.03 | 137890 | 153942
9 | 34:12.43 | 4:03.22 | 153943 | 172189
10 | 38:15.65 | 5:23.73 | 172190 | 196487
11 | 43:39.63 | 4:28.65 | 196488 | 216652
12 | 48:08.53 | 3:50.20 | 216653 | 233922
13 | 51:58.73 | 3:26.26 | 233923 | 249398
Range status and errors
Selected range
Filename W:\Descargas\Ibrahim Ferrer - Buenos Hermanos.wav
Peak level 100.0 %
Extraction speed 3.7 X
Range quality 99.9 %
Test CRC CEC4CE47
Copy CRC CEC4CE47
Copy OK
No errors occurred
AccurateRip summary
Track 1 accurately ripped (confidence 47) [704D1BCA] (AR v2)
Track 2 accurately ripped (confidence 47) [BD51E407] (AR v2)
Track 3 accurately ripped (confidence 47) [BF800903] (AR v2)
Track 4 accurately ripped (confidence 47) [2D5B04C2] (AR v2)
Track 5 accurately ripped (confidence 48) [C49CCDCE] (AR v2)
Track 6 accurately ripped (confidence 47) [17702399] (AR v2)
Track 7 accurately ripped (confidence 48) [EB5BFC9D] (AR v2)
Track 8 accurately ripped (confidence 48) [45E82A54] (AR v2)
Track 9 accurately ripped (confidence 45) [32364255] (AR v2)
Track 10 accurately ripped (confidence 43) [8F75D5D9] (AR v2)
Track 11 accurately ripped (confidence 48) [D85B67BE] (AR v2)
Track 12 accurately ripped (confidence 47) [20516F09] (AR v2)
Track 13 accurately ripped (confidence 47) [565DEDD9] (AR v2)
All tracks accurately ripped
End of status report
---- CUETools DB Plugin V2.1.3
[CTDB TOCID: YUOpq7.IbThKKiPHSo_ZyQJ07V4-] found, Submit result: YUOpq7.IbThKKiPHSo_ZyQJ07V4- has been confirmed
[43fe1df6] (54/81) No match
[b97ab821] (23/81) Accurately ripped
[62719048] (01/81) No match
[8918cf8a] (01/81) No match
[0b05ded8] (01/81) No match
[ce696b44] (01/81) No match
==== Log checksum B54C0048AF4F4DF55AFAF2590E2201B9C056360BAF05FF7BBF452581F6356AE3 ====
 
Об исполнителе
 
О релизе
MusicBrainz
Discogs (если браузер выдаёт "Internal server error", то из поисковой строки скопируйте ссылку и перейдите по ней в новой вкладке)
 
Доп. информация
Релиз полностью готов к воспроизведению в аудиоплеере (я ориентировался на foobar2000)При необходимости просто скопируйте необходимые обложки в папку с образомПри скачивании, если необходимо, переименуйте папку, в которой будет находиться альбомОставайтесь на раздаче и наслаждайтесь любимой музыкой!Не забываем говорить "Спасибо"!Комментарии приветствуются!
16:02
378
Нет комментариев. Ваш будет первым!