Поиск

(Latin, Bossa Nova, World Fusion, MPB) Flavia Coelho - Bossa Muffin - 2011, FLAC (tracks+.cue), lossless

(Latin, Bossa Nova, World Fusion, MPB) Flavia Coelho - Bossa Muffin - 2011, FLAC (tracks+.cue), lossless
Треклист:
Flavia Coelho / Bossa Muffin
Жанр: Latin, Bossa Nova, World Fusion, MPB
Страна-производитель диска: France
Год издания: 2011
Издатель (лейбл): Discograph
Аудиокодек: FLAC (*.flac)
Тип рипа: tracks+.cue
Битрейт аудио: lossless
Продолжительность: 00:48:46
Источник (релизер): вата (благодарности fuzzfolk)
Наличие сканов в содержимом раздачи: front + official photos
Треклист:
01. Bossa Muffin (O Viajente) 03:42
02. Amor E Futebol 03:39
03. Sunshine (Akoustik) 03:24
04. A Foto 03:26
05. De Paris À Rio 03:18
06. Cocha Bamba 03:49
07. O Genio 03:15
08. Interludio 00:40
09. Canta Comigo 03:07
10. Agnes 05:11
11. Decide 04:21
12. O Que Sou 03:32
13. Bossa Bika Nova 04:08
14. Liberdade 03:14
http://www.discograph.com/flaviacoelho/
Этот же альбом в mp3 ТУТ
Видео для аппетита:
 
Альтернативная обложка


 
Лог создания рипа
Exact Audio Copy V1.0 beta 3 from 29. August 2011
EAC extraction logfile from 23. December 2011, 22:11
Flavia Coelho / Bossa Muffin
Used drive : HL-DT-STDVD+-RW GA11N Adapter: 0 ID: 1
Read mode : Secure
Utilize accurate stream : Yes
Defeat audio cache : Yes
Make use of C2 pointers : No
Read offset correction : 667
Overread into Lead-In and Lead-Out : No
Fill up missing offset samples with silence : Yes
Delete leading and trailing silent blocks : No
Null samples used in CRC calculations : Yes
Used interface : Native Win32 interface for Win NT & 2000
Gap handling : Appended to previous track
Used output format : User Defined Encoder
Selected bitrate : 896 kBit/s
Quality : High
Add ID3 tag : No
Command line compressor : C:\Program Files (x86)\Exact Audio Copy\Flac\flac.exe
Additional command line options : -V -8 -T "artist=%artist%" -T "title=%title%" -T "album=%albumtitle%" -T "date=%year%" -T "tracknumber=%tracknr%" -T "genre=%genre%" %source%
TOC of the extracted CD
Track | Start | Length | Start sector | End sector
---------------------------------------------------------
1 | 0:00.00 | 3:42.04 | 0 | 16653
2 | 3:42.04 | 3:38.62 | 16654 | 33065
3 | 7:20.66 | 3:23.69 | 33066 | 48359
4 | 10:44.60 | 3:26.02 | 48360 | 63811
5 | 14:10.62 | 3:18.11 | 63812 | 78672
6 | 17:28.73 | 3:48.54 | 78673 | 95826
7 | 21:17.52 | 3:15.02 | 95827 | 110453
8 | 24:32.54 | 0:40.06 | 110454 | 113459
9 | 25:12.60 | 3:06.58 | 113460 | 127467
10 | 28:19.43 | 5:10.73 | 127468 | 150790
11 | 33:30.41 | 4:20.70 | 150791 | 170360
12 | 37:51.36 | 3:32.12 | 170361 | 186272
13 | 41:23.48 | 4:08.02 | 186273 | 204874
14 | 45:31.50 | 3:14.22 | 204875 | 219446
Track 1
Filename C:\EACrips\Flavia Coelho - 2011 - Bossa Muffin\01 - Bossa Muffin (O Viajente).wav
Pre-gap length 0:00:02.00
Peak level 100.0 %
Extraction speed 2.9 X
Track quality 100.0 %
Test CRC BBBC100F
Copy CRC BBBC100F
Track not present in AccurateRip database
Copy OK
Track 2
Filename C:\EACrips\Flavia Coelho - 2011 - Bossa Muffin\02 - Amor E Futebol.wav
Pre-gap length 0:00:00.45
Peak level 100.0 %
Extraction speed 3.1 X
Track quality 100.0 %
Test CRC 3046259C
Copy CRC 3046259C
Track not present in AccurateRip database
Copy OK
Track 3
Filename C:\EACrips\Flavia Coelho - 2011 - Bossa Muffin\03 - Sunshine (Akoustik).wav
Pre-gap length 0:00:00.73
Peak level 100.0 %
Extraction speed 3.4 X
Track quality 100.0 %
Test CRC F1A9939A
Copy CRC F1A9939A
Track not present in AccurateRip database
Copy OK
Track 4
Filename C:\EACrips\Flavia Coelho - 2011 - Bossa Muffin\04 - A Foto.wav
Pre-gap length 0:00:01.01
Peak level 100.0 %
Extraction speed 3.6 X
Track quality 100.0 %
Test CRC D6A3638E
Copy CRC D6A3638E
Track not present in AccurateRip database
Copy OK
Track 5
Filename C:\EACrips\Flavia Coelho - 2011 - Bossa Muffin\05 - De Paris À Rio.wav
Peak level 100.0 %
Extraction speed 3.8 X
Track quality 100.0 %
Test CRC 5E752007
Copy CRC 5E752007
Track not present in AccurateRip database
Copy OK
Track 6
Filename C:\EACrips\Flavia Coelho - 2011 - Bossa Muffin\06 - Cocha Bamba.wav
Pre-gap length 0:00:00.69
Peak level 100.0 %
Extraction speed 3.4 X
Track quality 99.9 %
Test CRC DF675DDC
Copy CRC DF675DDC
Track not present in AccurateRip database
Copy OK
Track 7
Filename C:\EACrips\Flavia Coelho - 2011 - Bossa Muffin\07 - O Genio.wav
Pre-gap length 0:00:01.05
Peak level 100.0 %
Extraction speed 4.2 X
Track quality 100.0 %
Test CRC 8CDC78E8
Copy CRC 8CDC78E8
Track not present in AccurateRip database
Copy OK
Track 8
Filename C:\EACrips\Flavia Coelho - 2011 - Bossa Muffin\08 - Interludio.wav
Pre-gap length 0:00:00.41
Peak level 100.0 %
Extraction speed 2.7 X
Track quality 100.0 %
Test CRC 98C990DC
Copy CRC 98C990DC
Track not present in AccurateRip database
Copy OK
Track 9
Filename C:\EACrips\Flavia Coelho - 2011 - Bossa Muffin\09 - Canta Comigo.wav
Peak level 100.0 %
Extraction speed 4.3 X
Track quality 100.0 %
Test CRC 25B6A5D2
Copy CRC 25B6A5D2
Track not present in AccurateRip database
Copy OK
Track 10
Filename C:\EACrips\Flavia Coelho - 2011 - Bossa Muffin\10 - Agnes.wav
Pre-gap length 0:00:00.37
Peak level 100.0 %
Extraction speed 4.9 X
Track quality 100.0 %
Test CRC BBB8029C
Copy CRC BBB8029C
Track not present in AccurateRip database
Copy OK
Track 11
Filename C:\EACrips\Flavia Coelho - 2011 - Bossa Muffin\11 - Decide.wav
Pre-gap length 0:00:01.45
Peak level 100.0 %
Extraction speed 4.2 X
Track quality 99.9 %
Test CRC 90658289
Copy CRC 90658289
Track not present in AccurateRip database
Copy OK
Track 12
Filename C:\EACrips\Flavia Coelho - 2011 - Bossa Muffin\12 - O Que Sou.wav
Peak level 100.0 %
Extraction speed 4.2 X
Track quality 99.9 %
Test CRC 69BE04CB
Copy CRC 69BE04CB
Track not present in AccurateRip database
Copy OK
Track 13
Filename C:\EACrips\Flavia Coelho - 2011 - Bossa Muffin\13 - Bossa Bika Nova.wav
Pre-gap length 0:00:01.69
Peak level 100.0 %
Extraction speed 5.2 X
Track quality 100.0 %
Test CRC 26BE4369
Copy CRC 26BE4369
Track not present in AccurateRip database
Copy OK
Track 14
Filename C:\EACrips\Flavia Coelho - 2011 - Bossa Muffin\14 - Liberdade.wav
Pre-gap length 0:00:01.93
Peak level 100.0 %
Extraction speed 5.3 X
Track quality 100.0 %
Test CRC 647FD8D8
Copy CRC 647FD8D8
Track not present in AccurateRip database
Copy OK
None of the tracks are present in the AccurateRip database
No errors occurred
End of status report
==== Log checksum E7AF7B45740853C5F8406B3BA16B53633C26CE377BBDD14A19307BC5C01B6481 ====
 
Содержание индексной карты (.CUE)
REM GENRE MPB
REM DATE 2011
REM DISCID A50B6D0E
REM COMMENT "ExactAudioCopy v1.0b3"
PERFORMER "Flavia Coelho"
TITLE "Bossa Muffin"
FILE "01 - Bossa Muffin (O Viajente).flac" WAVE
TRACK 01 AUDIO
TITLE "Bossa Muffin (O Viajente)"
PERFORMER "Flavia Coelho"
INDEX 01 00:00:00
TRACK 02 AUDIO
TITLE "Amor E Futebol"
PERFORMER "Flavia Coelho"
INDEX 00 03:41:45
FILE "02 - Amor E Futebol.flac" WAVE
INDEX 01 00:00:00
TRACK 03 AUDIO
TITLE "Sunshine (Akoustik)"
PERFORMER "Flavia Coelho"
INDEX 00 03:38:07
FILE "03 - Sunshine (Akoustik).flac" WAVE
INDEX 01 00:00:00
TRACK 04 AUDIO
TITLE "A Foto"
PERFORMER "Flavia Coelho"
INDEX 00 03:22:68
FILE "04 - A Foto.flac" WAVE
INDEX 01 00:00:00
FILE "05 - De Paris А Rio.flac" WAVE
TRACK 05 AUDIO
TITLE "De Paris А Rio"
PERFORMER "Flavia Coelho"
INDEX 01 00:00:00
TRACK 06 AUDIO
TITLE "Cocha Bamba"
PERFORMER "Flavia Coelho"
INDEX 00 03:17:34
FILE "06 - Cocha Bamba.flac" WAVE
INDEX 01 00:00:00
TRACK 07 AUDIO
TITLE "O Genio"
PERFORMER "Flavia Coelho"
INDEX 00 03:47:50
FILE "07 - O Genio.flac" WAVE
INDEX 01 00:00:00
TRACK 08 AUDIO
TITLE "Interludio"
PERFORMER "Flavia Coelho"
INDEX 00 03:14:46
FILE "08 - Interludio.flac" WAVE
INDEX 01 00:00:00
FILE "09 - Canta Comigo.flac" WAVE
TRACK 09 AUDIO
TITLE "Canta Comigo"
PERFORMER "Flavia Coelho"
INDEX 01 00:00:00
TRACK 10 AUDIO
TITLE "Agnes"
PERFORMER "Flavia Coelho"
INDEX 00 03:06:30
FILE "10 - Agnes.flac" WAVE
INDEX 01 00:00:00
TRACK 11 AUDIO
TITLE "Decide"
PERFORMER "Flavia Coelho"
INDEX 00 05:09:39
FILE "11 - Decide.flac" WAVE
INDEX 01 00:00:00
FILE "12 - O Que Sou.flac" WAVE
TRACK 12 AUDIO
TITLE "O Que Sou"
PERFORMER "Flavia Coelho"
INDEX 01 00:00:00
TRACK 13 AUDIO
TITLE "Bossa Bika Nova"
PERFORMER "Flavia Coelho"
INDEX 00 03:30:35
FILE "13 - Bossa Bika Nova.flac" WAVE
INDEX 01 00:00:00
TRACK 14 AUDIO
TITLE "Liberdade"
PERFORMER "Flavia Coelho"
INDEX 00 04:06:07
FILE "14 - Liberdade.flac" WAVE
INDEX 01 00:00:00
Доп. информация: http://fr.wikipedia.org/wiki/Flavia_Coelho
 
Об исполнителе (fr.)
Un "carnet de voyage". C’est ainsi que Flavia Coelho, fille de l’air née à Rio de Janeiro et installée à Paris depuis 2006, décrit son premier album. L’image colle à ce disque virevoltant, fidèle reflet d’une existence joyeusement mouvementée, ouverte à la beauté des découvertes et des rencontres. Son titre, Bossa Muffin, qui est aussi celui d’un irrésistible single, le deuxième après le très remarqué ''Sunshine'', claque comme une déclaration d’indépendance, ou un manifeste.
Gommant les frontières entre les genres comme entre tradition et modernité, le melting-pop hors catégorie de Bossa Muffin n’est pas un produit de synthèse créé artificiellement en laboratoire : il est le fruit savoureux et parfaitement mûri d’une trajectoire et d’une personnalité uniques. Un mélange sans pareil entre les trésors harmoniques de la samba et de la bossa nova, les mélodies obsédantes des musiques populaires nordestines (forro, pagode…), les syncopes chaloupées du reggae, la tchatche virtuose du raggamuffin, les pulsations fondamentales des musiques africaines, voire par instants les tonalités de la rumba catalane.
 
Об альбоме (en.)
Bossa Muffin is a « traveller’s diary » as Flavia Coelho describes it herself. It tells the story of a man who travels the world in order to find out more about himself. After leaving Rio de Janeiro for Paris in 2006, she met Bika Bika Pierre, a musician from Cameroon, who « opened the path to African music » for her, encouraging her to take up the guitar and work with fellow musician and producer Victor Vagh. With her two accomplices, joined by a group of musicians from various horizons, Flavia managed to craft a finely assorted sound; Bossa Muffin highlights the variety of her vocal talent.
Bossa Muffin is a unique mix of samba and bossa nova harmonic treasures, the hypnotic rhythm of the popular Nordestine music (forro, pagode…), the bouncing loops of reggae, the skilful braggadocio of raggamuffin, the essential pulses of African music, or even a glimpse of Catalan rumba…all of the above, seasoned with the voice of Flavia Coelho, no added effects or conceit – just a soft voice, a proud and fragile twang, appealing and warm, her colloquial voice, deep and natural. Erasing the boundaries between genre, between the tradition and the contemporary, Bossa Muffin, is however not a synthetic product created artificially in a laboratory, but rather a flavoursome fruit perfectly matured with unique experience and personality.
11:06
302
Нет комментариев. Ваш будет первым!