Поиск

(Latin, Afrobeat, Highlife, Calypso) [CD] VA - Sofrito Tropical Discotheque - 2011, FLAC (tracks+.cue), lossless

(Latin, Afrobeat, Highlife, Calypso) [CD] VA - Sofrito Tropical Discotheque - 2011, FLAC (tracks+.cue), lossless
Треклист:
Sofrito Tropical Discotheque
Жанр: Latin, Afrobeat, Highlife, Calypso
Носитель: CD
Страна-производитель диска (релиза): UK
Год издания: 2011
Издатель (лейбл): Strut
Номер по каталогу: STRUT070CD
Страна исполнителя (группы): Colombia, Nigeria, Ghana, Panama
Аудиокодек: FLAC (*.flac)
Тип рипа: tracks+.cue
Битрейт аудио: lossless
Продолжительность: 01:14:24
Источник (релизер): what.cd
Наличие сканов в содержимом раздачи: нет
Треклист:
01. Banda Los Hijos De La Nina Luz - Quiero Amanacer
02. Les Ya Toupas Du Zaire - Je Ne Bois Pas Beaucoup
03. Frente Cumbiero - Pitchito
04. Fair Nick Stars - Arrete Mal Parle
05. Kyerematen Stars - Maye Obi Den
06. Victor Uwaifo - Ohue (Frankie Francis & Simbad Edit)
07. Adolfo Echeverria - Sabroso Bacalão
08. El Timba - Descarga Bontempi
09. Mighty Shadow - Dat Soca Boat
10. Dany Play - Fa’Waka
11. Safohene Djeni - Mahu Wo Asie
12. Ti Celeste - Popilation Basse-Terrienne Du Abois
13. Quantic Y Su Conjunto Los Miticos Del Ritmo - Cumbia De Mochilla
14. Roaring Lion - Carnival Long Ago
15. Gnonnas Pedro - Yiri Yiri Boum
 
Лог создания рипа
Exact Audio Copy V1.0 beta 2 from 29. April 2011
EAC extraction logfile from 7. October 2012, 18:35
various artists / Sofrito Tropical Discotheque
Used drive : TSSTcorpCDDVDW SH-S223F Adapter: 1 ID: 1
Read mode : Secure
Utilize accurate stream : Yes
Defeat audio cache : Yes
Make use of C2 pointers : No
Read offset correction : 6
Overread into Lead-In and Lead-Out : No
Fill up missing offset samples with silence : Yes
Delete leading and trailing silent blocks : No
Null samples used in CRC calculations : Yes
Used interface : Native Win32 interface for Win NT & 2000
Gap handling : Appended to previous track
Used output format : User Defined Encoder
Selected bitrate : 1024 kBit/s
Quality : High
Add ID3 tag : No
Command line compressor : C:\Program Files\Exact Audio Copy\Flac\flac.exe
Additional command line options : -8 -V -T "ARTIST=%artist%" -T "TITLE=%title%" -T "ALBUM=%albumtitle%" -T "DATE=%year%" -T "TRACKNUMBER=%tracknr%" -T "GENRE=%genre%" -T "PERFORMER=%albuminterpret%" -T "COMPOSER=%composer%" %haslyrics%--tag-from-file=LYRICS
TOC of the extracted CD
Track | Start | Length | Start sector | End sector
---------------------------------------------------------
1 | 0:00.00 | 3:52.49 | 0 | 17448
2 | 3:52.49 | 8:56.64 | 17449 | 57712
3 | 12:49.38 | 4:02.44 | 57713 | 75906
4 | 16:52.07 | 4:30.67 | 75907 | 96223
5 | 21:22.74 | 6:55.21 | 96224 | 127369
6 | 28:18.20 | 5:35.14 | 127370 | 152508
7 | 33:53.34 | 4:16.28 | 152509 | 171736
8 | 38:09.62 | 4:26.42 | 171737 | 191728
9 | 42:36.29 | 4:51.12 | 191729 | 213565
10 | 47:27.41 | 3:32.30 | 213566 | 229495
11 | 50:59.71 | 7:15.60 | 229496 | 262180
12 | 58:15.56 | 4:34.35 | 262181 | 282765
13 | 62:50.16 | 2:22.00 | 282766 | 293415
14 | 65:12.16 | 4:06.68 | 293416 | 311933
15 | 69:19.09 | 5:05.50 | 311934 | 334858
Track 1
Filename C:\EAC\Sofrito Tropical Discotheque (2011) - FLAC\01 - Banda los Hijos de la Niña Luz - Quiero Amanaçer.wav
Pre-gap length 0:00:02.00
Peak level 98.8 %
Extraction speed 4.9 X
Track quality 100.0 %
Test CRC F8EB3555
Copy CRC F8EB3555
Accurately ripped (confidence 2) [6C6D8445] (AR v1)
Copy OK
Track 2
Filename C:\EAC\Sofrito Tropical Discotheque (2011) - FLAC\02 - Les Ya Toupas du Zaire - Je Ne Bois Pas Beaucoup.wav
Peak level 100.0 %
Extraction speed 5.4 X
Track quality 99.9 %
Test CRC BA959A75
Copy CRC BA959A75
Accurately ripped (confidence 2) [D7609D7E] (AR v1)
Copy OK
Track 3
Filename C:\EAC\Sofrito Tropical Discotheque (2011) - FLAC\03 - Frente Cumbiero - Pitchito.wav
Peak level 99.2 %
Extraction speed 6.2 X
Track quality 100.0 %
Test CRC 898F8DD0
Copy CRC 898F8DD0
Accurately ripped (confidence 2) [3617104D] (AR v1)
Copy OK
Track 4
Filename C:\EAC\Sofrito Tropical Discotheque (2011) - FLAC\04 - Fair Nick Stars - Arrete Mal Parlé.wav
Peak level 100.0 %
Extraction speed 5.4 X
Track quality 99.9 %
Test CRC 47383381
Copy CRC 47383381
Accurately ripped (confidence 2) [93F071F2] (AR v1)
Copy OK
Track 5
Filename C:\EAC\Sofrito Tropical Discotheque (2011) - FLAC\05 - Kyerematen Stars - Maye Obi Den.wav
Peak level 100.0 %
Extraction speed 7.4 X
Track quality 100.0 %
Test CRC 3FCB7310
Copy CRC 3FCB7310
Accurately ripped (confidence 2) [ECE0FEFD] (AR v1)
Copy OK
Track 6
Filename C:\EAC\Sofrito Tropical Discotheque (2011) - FLAC\06 - Victor Uwaifo - Ohue (Frankie Francis & Simbad Edit).wav
Peak level 100.0 %
Extraction speed 7.8 X
Track quality 100.0 %
Test CRC F5D05CFC
Copy CRC F5D05CFC
Accurately ripped (confidence 2) [5B4E3720] (AR v1)
Copy OK
Track 7
Filename C:\EAC\Sofrito Tropical Discotheque (2011) - FLAC\07 - Adolfo Echeverria - Sabroso Bacalão.wav
Peak level 100.0 %
Extraction speed 7.8 X
Track quality 100.0 %
Test CRC BE1EED93
Copy CRC BE1EED93
Accurately ripped (confidence 2) [0DDA87F0] (AR v1)
Copy OK
Track 8
Filename C:\EAC\Sofrito Tropical Discotheque (2011) - FLAC\08 - El Timba - Descarga Bontempi.wav
Peak level 99.0 %
Extraction speed 6.6 X
Track quality 99.9 %
Test CRC F981F339
Copy CRC F981F339
Accurately ripped (confidence 2) [F9333A46] (AR v1)
Copy OK
Track 9
Filename C:\EAC\Sofrito Tropical Discotheque (2011) - FLAC\09 - Mighty Shadow - Dat Soca Boat.wav
Peak level 100.0 %
Extraction speed 7.1 X
Track quality 99.9 %
Test CRC 59396E83
Copy CRC 59396E83
Accurately ripped (confidence 2) [ABB7955F] (AR v1)
Copy OK
Track 10
Filename C:\EAC\Sofrito Tropical Discotheque (2011) - FLAC\10 - Dany Play - Fa'waka (Pt 1).wav
Peak level 100.0 %
Extraction speed 8.5 X
Track quality 100.0 %
Test CRC 2CFC4C81
Copy CRC 2CFC4C81
Accurately ripped (confidence 2) [B292733A] (AR v1)
Copy OK
Track 11
Filename C:\EAC\Sofrito Tropical Discotheque (2011) - FLAC\11 - Safoehen Djeni - Mahu Wo Asie (Edit).wav
Peak level 100.0 %
Extraction speed 9.5 X
Track quality 100.0 %
Test CRC B903E1CE
Copy CRC B903E1CE
Accurately ripped (confidence 2) [FF1BC48E] (AR v1)
Copy OK
Track 12
Filename C:\EAC\Sofrito Tropical Discotheque (2011) - FLAC\12 - Ti Céleste - Popilation Basse-Terrienne au Abois.wav
Peak level 100.0 %
Extraction speed 9.4 X
Track quality 100.0 %
Test CRC 6D200D21
Copy CRC 6D200D21
Accurately ripped (confidence 2) [3588817A] (AR v1)
Copy OK
Track 13
Filename C:\EAC\Sofrito Tropical Discotheque (2011) - FLAC\13 - Quantic y Su Conjunto los Miticos del Ritmo - Cumbia de Mochilla.wav
Peak level 100.0 %
Extraction speed 8.5 X
Track quality 100.0 %
Test CRC BBFB45E0
Copy CRC BBFB45E0
Accurately ripped (confidence 2) [03A9E283] (AR v1)
Copy OK
Track 14
Filename C:\EAC\Sofrito Tropical Discotheque (2011) - FLAC\14 - Roaring Lion - Carnival Long Ago.wav
Peak level 100.0 %
Extraction speed 9.6 X
Track quality 100.0 %
Test CRC 391BD77D
Copy CRC 391BD77D
Accurately ripped (confidence 2) [525AF316] (AR v1)
Copy OK
Track 15
Filename C:\EAC\Sofrito Tropical Discotheque (2011) - FLAC\15 - Gnonnas Pedro - Yiri Yiri Boum.wav
Peak level 100.0 %
Extraction speed 5.6 X
Track quality 100.0 %
Test CRC C782D47C
Copy CRC C782D47C
Track not present in AccurateRip database
Copy OK
14 track(s) accurately ripped
1 track(s) not present in the AccurateRip database
Some tracks could not be verified as accurate
No errors occurred
End of status report
==== Log checksum 772756CDC180BB8F7ECBC0ADA67E6F26981030DF236123E9636B8DF197E1009F ====
 
Содержание индексной карты (.CUE)
REM GENRE Latin
REM DATE 2011
REM DISCID CB11700F
REM COMMENT "ExactAudioCopy v1.0b2"
PERFORMER "various artists"
TITLE "Sofrito Tropical Discotheque"
FILE "01 - Banda los Hijos de la Nina Luz - Quiero Amanacer.wav" WAVE
TRACK 01 AUDIO
TITLE "Quiero Amanacer"
PERFORMER "Banda los Hijos de la Nina Luz"
INDEX 01 00:00:00
FILE "02 - Les Ya Toupas du Zaire - Je Ne Bois Pas Beaucoup.wav" WAVE
TRACK 02 AUDIO
TITLE "Je Ne Bois Pas Beaucoup"
PERFORMER "Les Ya Toupas du Zaire"
INDEX 01 00:00:00
FILE "03 - Frente Cumbiero - Pitchito.wav" WAVE
TRACK 03 AUDIO
TITLE "Pitchito"
PERFORMER "Frente Cumbiero"
INDEX 01 00:00:00
FILE "04 - Fair Nick Stars - Arrete Mal Parle.wav" WAVE
TRACK 04 AUDIO
TITLE "Arrete Mal Parle"
PERFORMER "Fair Nick Stars"
INDEX 01 00:00:00
FILE "05 - Kyerematen Stars - Maye Obi Den.wav" WAVE
TRACK 05 AUDIO
TITLE "Maye Obi Den"
PERFORMER "Kyerematen Stars"
INDEX 01 00:00:00
FILE "06 - Victor Uwaifo - Ohue (Frankie Francis & Simbad Edit).wav" WAVE
TRACK 06 AUDIO
TITLE "Ohue (Frankie Francis & Simbad Edit)"
PERFORMER "Victor Uwaifo"
INDEX 01 00:00:00
FILE "07 - Adolfo Echeverria - Sabroso Bacalao.wav" WAVE
TRACK 07 AUDIO
TITLE "Sabroso Bacalao"
PERFORMER "Adolfo Echeverria"
INDEX 01 00:00:00
FILE "08 - El Timba - Descarga Bontempi.wav" WAVE
TRACK 08 AUDIO
TITLE "Descarga Bontempi"
PERFORMER "El Timba"
INDEX 01 00:00:00
FILE "09 - Mighty Shadow - Dat Soca Boat.wav" WAVE
TRACK 09 AUDIO
TITLE "Dat Soca Boat"
PERFORMER "Mighty Shadow"
INDEX 01 00:00:00
FILE "10 - Dany Play - Fa'waka (Pt 1).wav" WAVE
TRACK 10 AUDIO
TITLE "Fa'waka (Pt 1)"
PERFORMER "Dany Play"
INDEX 01 00:00:00
FILE "11 - Safoehen Djeni - Mahu Wo Asie (Edit).wav" WAVE
TRACK 11 AUDIO
TITLE "Mahu Wo Asie (Edit)"
PERFORMER "Safoehen Djeni"
INDEX 01 00:00:00
FILE "12 - Ti Celeste - Popilation Basse-Terrienne au Abois.wav" WAVE
TRACK 12 AUDIO
TITLE "Popilation Basse-Terrienne au Abois"
PERFORMER "Ti Celeste"
INDEX 01 00:00:00
FILE "13 - Quantic y Su Conjunto los Miticos del Ritmo - Cumbia de Mochilla.wav" WAVE
TRACK 13 AUDIO
TITLE "Cumbia de Mochilla"
PERFORMER "Quantic y Su Conjunto los Miticos del Ritmo"
ISRC GAU1=1002126
INDEX 01 00:00:00
FILE "14 - Roaring Lion - Carnival Long Ago.wav" WAVE
TRACK 14 AUDIO
TITLE "Carnival Long Ago"
PERFORMER "Roaring Lion"
INDEX 01 00:00:00
FILE "15 - Gnonnas Pedro - Yiri Yiri Boum.wav" WAVE
TRACK 15 AUDIO
TITLE "Yiri Yiri Boum"
PERFORMER "Gnonnas Pedro"
INDEX 01 00:00:00
 
Об альбоме (сборнике)
Strut present the debut compilation by one of the UK’s leading Afro, Caribbean and Latin music party collectives, SOFRITO. Comprising DJs Hugo Mendez and Frankie Francis alongside The Mighty Crime Minister, Sofrito has consistently combined the serious vinyl hunter’s ear for amazing records with a stylish, accessible approach, rocking dancefloors worldwide since their inception in 2007.
From their legendary Tropical Warehouse parties in East London to the clubs and bars of Brooklyn, from beach parties in Greece to festivals and clubs across Europe including WOMAD and the Big Chill, Sofrito has now become a worldwide proposition. The club has also attracted a string of A-list guests for live performances including Manu Dibango, Poets Of Rhythm, Souljazz Orchestra and Quantic.The club’s graphics by artist Lewis Heriz have become an important a part of its identity, with each event accompanied by unique hand-drawn poster art, each now a collector’s piece in its own right. And, running alongside their events, their Sofrito Specials 12” imprint has made available exclusive edits of impossible-to-find rarities. Their ‘African Soul Power’ edit was picked by Gilles Peterson as one of his re-works of 2008.
For their debut compilation, Sofrito get the party started with 15 dynamite tropical grooves old and new ranging from cumbia, Congolese guitar, calypso and highlife. Highlights include an exclusive cumbia by Quantic, ‘Cumbia Mochilla’, a new edit of a rare Victor Uwaifo disco cut and firing Carnival jams from old-timers Roaring Lion and Mighty Shadow.
21:33
249
Нет комментариев. Ваш будет первым!