Поиск

(latin, afro-cuban jazz, salsa) Bebo Valdes - Bebo rides again - 2006, lossless

(latin, afro-cuban jazz, salsa) Bebo Valdes - Bebo rides again - 2006, lossless
Треклист:
Bebo Valdes - Bebo rides again
Жанр: latin, afro-cuban jazz, salsa
Год выпуска диска: 2006
Производитель диска: Cuba
Битрейт аудио: lossless
Продолжительность: 52:33
О диске:
Этот компакт-диск является одновременно и историческим, и весьма захватывающим. Бебо Вальдес (отец Чучо Вальдеса) был одним из гигантов кубинского джаза и популярной музыки, пока он не покинул страну в 1960 г.
Весьма удивительно, что с того времени он не сделал ни одной записи, несмотря на мирное проживание в Швеции. Эта запись также существенна тем, что она сделана кубинскими эмигрантами совместно с кубинцами, все еще живущими при режиме Кастро (гитарист Карлос Эмильо Моралес и ударник Амадито Вальдес).
Пакито Д’Ривера (организатор этого коллектива) заслуживает большого уважения, но Вальдес - настоящая звезда. Он сочинил восемь новых вариаций за 36 часов до начала записи, хотя ему в то время было 76 лет. Хотя Вальдес утверждал, что из-за нехватки сна и избытка писанины (он также был аранжировщиком 11 песен), его пальцы чувствовали себя немного жесткими, он играет весьма хорошо на всем протяжении записи.
Конечный результат полон сильных мелодий, энергичных ритмов и большого разнообразия. Инструментовка различна на каждом трэке, с большим количеством соло для Д’Ривера (и на альте, и на кларнете), тромбониста Хуан-Пабло Торреса, трубача Диего Уркола. Это одна из самых превосходных записей афро-кубинского джаза последних лет.
Трэклист:
01. Al Dizzy Gillespie (4:57)
02. Anda (4:51)
03. Pa' Goza (4:23)
04. Felicia (5:20)
05. La Comparsa (4:53)
06. A La Marchere (3:41)
07. Pan Con Timba (6:57)
08. Viente Anos (3:36)
09. Pierre Jamballah (5:31)
10. To Mario Bauza (6:03)
11. Oleaje (1:59)
 
Отчёт EAC
Exact Audio Copy V0.99 prebeta 5 from 4. May 2009
EAC extraction logfile from 28. September 2009, 13:06
Bebo Valdйs / Bebo rides again
Used drive : SlimtypeDVDRW SSM-8515S Adapter: 0 ID: 1
Read mode : Secure
Utilize accurate stream : Yes
Defeat audio cache : Yes
Make use of C2 pointers : No
Read offset correction : 594
Overread into Lead-In and Lead-Out : No
Fill up missing offset samples with silence : Yes
Delete leading and trailing silent blocks : No
Null samples used in CRC calculations : Yes
Used interface : Native Win32 interface for Win NT & 2000
Gap handling : Appended to previous track
Used output format : User Defined Encoder
Selected bitrate : 128 kBit/s
Quality : High
Add ID3 tag : No
Command line compressor : C:\Program Files\Exact Audio Copy\Flac\flac.exe
Additional command line options : -8 -V -T "ARTIST=%a" -T "TITLE=%t" -T "ALBUM=%g" -T "DATE=%y" -T "TRACKNUMBER=%n" -T "GENRE=%m" -T "COMMENT=EAC FLAC -8" %s
TOC of the extracted CD
Track | Start | Length | Start sector | End sector
---------------------------------------------------------
1 | 0:00.00 | 5:00.00 | 0 | 22499
2 | 5:00.00 | 4:54.10 | 22500 | 44559
3 | 9:54.10 | 4:25.54 | 44560 | 64488
4 | 14:19.64 | 5:20.36 | 64489 | 88524
5 | 19:40.25 | 4:55.50 | 88525 | 110699
6 | 24:36.00 | 3:42.72 | 110700 | 127421
7 | 28:18.72 | 7:00.05 | 127422 | 158926
8 | 35:19.02 | 3:37.20 | 158927 | 175221
9 | 38:56.22 | 5:31.20 | 175222 | 200066
10 | 44:27.42 | 6:05.73 | 200067 | 227514
11 | 50:33.40 | 2:00.47 | 227515 | 236561
Track 1
Filename D:\torrents\мои раздачи\bebo valdes\01. Bebo Valdйs – Al Dizzy Gillespie.wav
Pre-gap length 0:00:02.00
Peak level 91.6 %
Track quality 100.0 %
Test CRC 6AB5FAD5
Copy CRC 6AB5FAD5
Copy OK
Track 2
Filename D:\torrents\мои раздачи\bebo valdes\02. Bebo Valdйs – Anda.wav
Peak level 94.4 %
Track quality 100.0 %
Test CRC 3DDBB550
Copy CRC 3DDBB550
Copy OK
Track 3
Filename D:\torrents\мои раздачи\bebo valdes\03. Bebo Valdйs – Pa' Goza.wav
Peak level 90.2 %
Track quality 100.0 %
Test CRC DC35CB5E
Copy CRC DC35CB5E
Copy OK
Track 4
Filename D:\torrents\мои раздачи\bebo valdes\04. Bebo Valdйs – Felicia.wav
Peak level 90.2 %
Track quality 100.0 %
Test CRC 39D001B0
Copy CRC 39D001B0
Copy OK
Track 5
Filename D:\torrents\мои раздачи\bebo valdes\05. Bebo Valdйs – La Comparsa.wav
Peak level 77.9 %
Track quality 100.0 %
Test CRC 26731987
Copy CRC 26731987
Copy OK
Track 6
Filename D:\torrents\мои раздачи\bebo valdes\06. Bebo Valdйs – A la Marcherй.wav
Peak level 88.8 %
Track quality 100.0 %
Test CRC 0CFB1848
Copy CRC 0CFB1848
Copy OK
Track 7
Filename D:\torrents\мои раздачи\bebo valdes\07. Bebo Valdйs – Pan con Timba.wav
Peak level 100.0 %
Track quality 99.9 %
Test CRC 43EFF095
Copy CRC 43EFF095
Copy OK
Track 8
Filename D:\torrents\мои раздачи\bebo valdes\08. Bebo Valdйs – Veinte Aсos.wav
Peak level 79.3 %
Track quality 100.0 %
Test CRC 917DCA49
Copy CRC 917DCA49
Copy OK
Track 9
Filename D:\torrents\мои раздачи\bebo valdes\09. Bebo Valdйs – Pierre Jamballah.wav
Peak level 82.8 %
Track quality 100.0 %
Test CRC 31D483FF
Copy CRC 31D483FF
Copy OK
Track 10
Filename D:\torrents\мои раздачи\bebo valdes\10. Bebo Valdйs – To Mario Bauza.wav
Peak level 94.9 %
Track quality 100.0 %
Test CRC 255D9CF2
Copy CRC 255D9CF2
Copy OK
Track 11
Filename D:\torrents\мои раздачи\bebo valdes\11. Bebo Valdйs – Oleaje.wav
Peak level 83.9 %
Track quality 100.0 %
Test CRC B18E12AC
Copy CRC B18E12AC
Copy OK
No errors occurred
End of status report
Download available for power users only.
08:24
243
Нет комментариев. Ваш будет первым!