Поиск

(Klezmer, Rock, Avant-Garde, Jazz, Tzadik) Paul Brody's Sadawi - Kabbalah Dream - 2002, APE (image+.cue), lossless

Треклист:
Paul Brody's Sadawi - Kabbalah Dream
Жанр: Klezmer, Rock, Avant-Garde, Jazz, Tzadik
Год выпуска диска: 2002
Производитель диска: USA
Лейбл: Tzadik (Radical Jewish Culture)
Аудио кодек: APE
Тип рипа: image+.cue
Битрейт аудио: lossless
Продолжительность: 49 min
Трэклист:
Kabbalah Dream
1. Kabbalah Dream
2. Holy Man’s Hum
3. Buber’s Big Boat
4. When Two Sing
5. Sleeping on a Rock
6. Floating Sabbath
7. Sa’dawi
8. (Born) Smaller than a Banana
Музыканты:
Paul Brody: trumpet
Jan Hamerschmidt: clarinet, bass clarinet
Martin Lillich: bass
Eric Rosenthal: drums
Brandon Seabrook: banjo, guitar, electronics
Доп. информация: Рип сделан с оригинального CD TZ7163... Картинки прилагаются...
Тут уже имеется один альбом Пола - второй Tzadik-овский: For The Moment
 
EAC Log
Exact Audio Copy V0.99 prebeta 4 from 23. January 2008
EAC extraction logfile from 13. September 2009, 17:11
Paul Brody's Sadawi / Kabbalah Dream
Used drive : TSSTcorpCD/DVDW SH-W162C Adapter: 0 ID: 0
Read mode : Secure
Utilize accurate stream : Yes
Defeat audio cache : Yes
Make use of C2 pointers : No
Read offset correction : 6
Overread into Lead-In and Lead-Out : No
Fill up missing offset samples with silence : Yes
Delete leading and trailing silent blocks : No
Null samples used in CRC calculations : Yes
Used interface : Installed external ASPI interface
Used output format : Internal WAV Routines
Sample format : 44.100 Hz; 16 Bit; Stereo
TOC of the extracted CD
Track | Start | Length | Start sector | End sector
---------------------------------------------------------
1 | 0:00.00 | 6:33.40 | 0 | 29514
2 | 6:33.40 | 6:19.49 | 29515 | 57988
3 | 12:53.14 | 7:00.44 | 57989 | 89532
4 | 19:53.58 | 5:56.47 | 89533 | 116279
5 | 25:50.30 | 6:18.55 | 116280 | 144684
6 | 32:09.10 | 5:16.19 | 144685 | 168403
7 | 37:25.29 | 7:33.01 | 168404 | 202379
8 | 44:58.30 | 4:29.65 | 202380 | 222619
Range status and errors
Selected range
Filename C:\Paul Brody's Sadawi (2002) Kabbalah Dream\Paul Brody's Sadawi - Kabbalah Dream.wav
Peak level 100.0 %
Range quality 100.0 %
Copy CRC 25A8C3D8
Copy OK
No errors occurred
End of status report
 
from Tzadik label
Paul Brody is a remarkable trumpet player, composer and arranger based in Berlin. For his first Tzadik release he has brought together some of the best Klezmer players from the U.S. and Germany to create a Jewish music supergroup. The music combines exciting arrangements, catchy tunes and compelling solos into another classic of the new Jewish Renaissance. Along with Masada, the New Klezmer Trio and Naftule’s Dream, Paul Brody is forging a new Jewish jazz for the 21st Century with imagination and a solid knowledge of tradition.
Мои раздачи
Download available for power users only.
07:57
192
Нет комментариев. Ваш будет первым!