Поиск

(Klezmer Jazz, Swing, Tzadik) Paul Shapiro - Essen - 2008, FLAC (image+.cue), lossless

(Klezmer Jazz, Swing, Tzadik) Paul Shapiro - Essen - 2008, FLAC (image+.cue), lossless
Треклист:
Paul Shapiro / Essen
Жанр: Klezmer Jazz, Swing
Страна-производитель диска: USA
Год издания диска: 2008
Издатель (лейбл): Tzadik
Номер по каталогу: TZ 8126
Страна: USA
Аудиокодек: FLAC (*.flac)
Тип рипа: image+.cue
Битрейт аудио: lossless
Продолжительность: 46:32
Источник (релизер): CD
Наличие сканов в содержимом раздачи: да
Треклист:
01. Essen
02. My Little Cousin
03. Utt-Da-Zay
04. A Bee Gezindt
05. Oy Veys Mir
06. Mama Goes Where Papa Goes
07. Dunkin' Bagel
08. Tzouris
09. Matzoh Balls
10. A Bissel Bop
 
Лог создания рипа
Exact Audio Copy V1.0 beta 2 from 29. April 2011
EAC extraction logfile from 11. July 2011, 14:53
Paul Shapiro / Essen
Used drive : Optiarc DVD RW AD-7240S Adapter: 2 ID: 0
Read mode : Secure
Utilize accurate stream : Yes
Defeat audio cache : Yes
Make use of C2 pointers : No
Read offset correction : 48
Overread into Lead-In and Lead-Out : No
Fill up missing offset samples with silence : Yes
Delete leading and trailing silent blocks : No
Null samples used in CRC calculations : Yes
Used interface : Native Win32 interface for Win NT & 2000
Used output format : User Defined Encoder
Selected bitrate : 768 kBit/s
Quality : High
Add ID3 tag : No
Command line compressor : C:\Program Files\Exact Audio Copy\FLAC\FLAC.EXE
Additional command line options : -6 -V -T "ARTIST=%artist%" -T "TITLE=%title%" -T "ALBUM=%albumtitle%" -T "DATE=%year%" -T "TRACKNUMBER=%tracknr%" -T "GENRE=%genre%" -T "COMMENT=%comment%" -T "BAND=%albuminterpret%" -T "COMPOSER=%composer%" %haslyrics%--ta
TOC of the extracted CD
Track | Start | Length | Start sector | End sector
---------------------------------------------------------
1 | 0:00.00 | 6:26.26 | 0 | 28975
2 | 6:26.26 | 5:20.60 | 28976 | 53035
3 | 11:47.11 | 6:08.46 | 53036 | 80681
4 | 17:55.57 | 4:58.47 | 80682 | 103078
5 | 22:54.29 | 4:15.29 | 103079 | 122232
6 | 27:09.58 | 4:56.02 | 122233 | 144434
7 | 32:05.60 | 3:00.35 | 144435 | 157969
8 | 35:06.20 | 3:49.72 | 157970 | 175216
9 | 38:56.17 | 3:38.08 | 175217 | 191574
10 | 42:34.25 | 3:57.45 | 191575 | 209394
Range status and errors
Selected range
Filename C:\Documents and Settings\User\Мои документы\Paul Shapiro - Essen (2008)\Paul Shapiro - Essen.wav
Peak level 96.6 %
Extraction speed 3.7 X
Range quality 100.0 %
Test CRC 908365BB
Copy CRC 908365BB
Copy OK
No errors occurred
AccurateRip summary
Track 1 accurately ripped (confidence 1) [E339F621] (AR v1)
Track 2 accurately ripped (confidence 1) [C21758CB] (AR v1)
Track 3 accurately ripped (confidence 1) [5737206C] (AR v1)
Track 4 accurately ripped (confidence 1) [6BFEAFC9] (AR v1)
Track 5 accurately ripped (confidence 1) [2B1AC5CD] (AR v1)
Track 6 accurately ripped (confidence 1) [781AC804] (AR v1)
Track 7 accurately ripped (confidence 1) [B27E12D4] (AR v1)
Track 8 accurately ripped (confidence 1) [57B8966E] (AR v1)
Track 9 accurately ripped (confidence 1) [474AF5A8] (AR v1)
Track 10 accurately ripped (confidence 1) [7E0FE8F8] (AR v1)
All tracks accurately ripped
End of status report
==== Log checksum BED13F9520D7B4131AE83B0BE7E05DF58DB18BADE546C891E0C47913CA8DE326 ====
 
Содержание индексной карты (.CUE)
REM GENRE Jazz
REM DISCID 900AE70A
REM COMMENT "ExactAudioCopy v1.0b2"
PERFORMER "Paul Shapiro"
TITLE "Essen"
FILE "Paul Shapiro - Essen.flac" WAVE
TRACK 01 AUDIO
TITLE "Essen"
PERFORMER "Paul Shapiro"
INDEX 01 00:00:00
TRACK 02 AUDIO
TITLE "My Little Cousin"
PERFORMER "Paul Shapiro"
INDEX 01 06:26:26
TRACK 03 AUDIO
TITLE "Utt-Da-Zay"
PERFORMER "Paul Shapiro"
INDEX 01 11:47:11
TRACK 04 AUDIO
TITLE "A Bee Gezindt"
PERFORMER "Paul Shapiro"
INDEX 01 17:55:57
TRACK 05 AUDIO
TITLE "Oy Veys Mir"
PERFORMER "Paul Shapiro"
INDEX 00 22:53:16
INDEX 01 22:54:29
TRACK 06 AUDIO
TITLE "Mama Goes Where Papa Goes"
PERFORMER "Paul Shapiro"
INDEX 00 27:08:36
INDEX 01 27:09:58
TRACK 07 AUDIO
TITLE "Dunkin' Bagel"
PERFORMER "Paul Shapiro"
INDEX 01 32:05:60
TRACK 08 AUDIO
TITLE "Tzouris"
PERFORMER "Paul Shapiro"
INDEX 00 35:05:20
INDEX 01 35:06:20
TRACK 09 AUDIO
TITLE "Matzoh Balls"
PERFORMER "Paul Shapiro"
INDEX 01 38:56:17
TRACK 10 AUDIO
TITLE "A Bissel Bop"
PERFORMER "Paul Shapiro"
INDEX 01 42:34:25
 
Об исполнителе (группе)
Saxophonist Paul Shapiro has really out-done himself on his third album as a bandleader. Entitled Essen, the music is served up with elements of Yiddish swing, soulful blues, gospel chant and theatre-cabaret wind up in gypsy-punk cables, hip-hop landings and “Borscht Belt humor,” which Shapiro refers to as the comedians who entertain at the hotels in Upstate New York‘s Catskill Mountains. If that means nothing to you, then think of Jackie Mason’s humor and you’ll grasp the idea. The term “essen” is Yiddish for “eat” and Shapiro has delivered a viable smorgasbord for people to eat up with songs made famous by Peggy Lee, Cab Calloway, Sophie Tucker, Mildred Bailey, Slim Gaillard and the Barton Brothers. The jocularity and swing-jazz vibe in the tracks have a big stage personality and presage a trend for Yiddish/klezmer accents to modernize songs that have laid dormant for years. Paul Shapiro was just the guy to do it.
The album goes back to 40s jazz with numbers like “Mama Goes Where Papa Goes,” which is beautifully tailored to Cillia Owens’ husky vocal timbres with a likeness to the lush moans of Sarah Vaughan, and “Oy Veys Mir,” delivered fabulously by singer Babi Floyd. The rhythm section in these tunes make you want to join in the revelry on stage. Comprising of pianist Brian Mitchell, bassist Booker King and drummer Tony Lewis, the jumps in the rhythmic grooves move from a sultry, swing-blues slugging to flamboyant rollicking shakes. The horn section of Shapiro on saxophone, Steven Bernstein and Frank London on trumpet and Doug Wieselman on clarinet have vibrant klezmer-flange and soulful-blues shadings. The upbeat klezmer jive of “Dunkin Bagel” induces laughter while the Yiddish-soul laden licks of “Utt-Da-Zay” feel like a funeral service with a theatre-cabaret style. The dazzling breadth of the piano keys on “Utt-Da-Zay” are brilliantly scrolled and turn to a snazzy bebop throttle along “A Bissel Bop.”
Maybe the most impressive track on the album is the first cone “Essen,” which is a massive collage of Yiddish swing, theatre-cabaret, gypsy-punk and hip-hop thrusts. What “Bohemian Rhapsody” is to Queen, “Essen” is to Paul Shapiro. He seams various music styles and forms a saucy cohesive storyline. The entwining patterns are a great challenge that takes the mind of a genius. Though “Essen” is the only song of its kind on the album, it is enough to bring together music from different cultures and maybe even its people.
Shapiro calls his sonic collage an “Afro-Semitic mish-mash,” as he revives 40s Jewish-tinged jazz that became a staple in the repertoire of black jazz singers, such as Billy Eckstine, Eartha Kitt and Sammy Davis Jr. Essen is a look at what was in the heart of Shapiro’s Ribs And Brisket Revue, which he performed with his band in the basement of Cornelia Street Café in New York City. Shapiro’s music pays homage to the sacred musical traditions of Jewish heritage while exhibiting true Jackie Mason tact. Shapiro injects spurts of laughter into the music because what would life be without those moments of happiness?
 
Об альбоме (сборнике)
Schmeis! The newest CD from the madcap Yiddish sax maven Paul Shapiro (with The Ribs and Brisket Revue) is an over the top exploration of the cross roads of Yiddish Bop, Swing and comedy. Including covers of novelty songs originally recorded by Slim Gaillard and Cab Calloway as well as Yiddish classics popularized by Sophie Tucker and the Barton Brothers and some rockin’ originals, this is music for tanzen, zingen un lachen—all night long! Paul’s greatest recording to date is also his most outrageous and enjoyable.
 
Состав
Personnel:
Booker King: Bass
Tony Lewis: Drums
Brian Mitchell: Piano
Paul Shapiro: Sax, Clarinet, Vocals
Babi Floyd: Vocals
Cilla Owens: Vocals
Special Guests:
Steven Bernstein: Trumpet, Vocals
Frank London: Trumpet, Vocals
Doug Wieselman: Clarinet, Vocals
23:00
286
Нет комментариев. Ваш будет первым!