Вы используете незарегистрированную версию компонента "Вкладки"!

Поиск

(Klezmer Jazz) Joel Rubin & Uri Caine Duo - Azoy Tsu Tsveyt - 2011, APE (tracks+.cue), lossless

(Klezmer Jazz) Joel Rubin & Uri Caine Duo - Azoy Tsu Tsveyt - 2011, APE (tracks+.cue), lossless
Треклист:
Joel Rubin & Uri Caine Duo / Azoy Tsu Tsveyt
Жанр: Klezmer Jazz
Страна-производитель диска: US
Год издания диска: 2011
Издатель (лейбл): Tzadik
Номер по каталогу: #8163
Аудиокодек: APE (*.ape)
Тип рипа: tracks+.cue
Битрейт аудио: lossless
Продолжительность: 53:25
Источник (релизер): Aeacos Спасибо!
Наличие сканов в содержимом раздачи: нет
Треклист:
1. The Pianist - 13:35
2. Kiever - 3:44
3. Ahavas Oylam/Eternal Love - 7:15
4. Bessarabian Thing - 2:20
5. Nign For Sabbath and Holidays - 3:13
6. Yiddish Soldier - 10:00
7. Ah Zoy - 5:11
8. New Khosidls - 8:02
 
Лог создания рипа
Exact Audio Copy V1.0 beta 2 from 29. April 2011
EAC extraction logfile from 29. July 2011, 22:06
Joel Rubin/Uri Caine Duo / Azoy Tsu Tsveyt
Used drive : PBDS DVD+-RW DS-8W1P Adapter: 0 ID: 0
Read mode : Secure
Utilize accurate stream : Yes
Defeat audio cache : Yes
Make use of C2 pointers : No
Read offset correction : 594
Overread into Lead-In and Lead-Out : No
Fill up missing offset samples with silence : Yes
Delete leading and trailing silent blocks : No
Null samples used in CRC calculations : Yes
Used interface : Native Win32 interface for Win NT & 2000
Gap handling : Appended to previous track
Used output format : Internal WAV Routines
Sample format : 44.100 Hz; 16 Bit; Stereo
TOC of the extracted CD
Track | Start | Length | Start sector | End sector
---------------------------------------------------------
1 | 0:00.00 | 13:35.16 | 0 | 61140
2 | 13:35.16 | 3:44.16 | 61141 | 77956
3 | 17:19.32 | 7:15.58 | 77957 | 110639
4 | 24:35.15 | 2:20.71 | 110640 | 121210
5 | 26:56.11 | 3:13.07 | 121211 | 135692
6 | 30:09.18 | 10:00.50 | 135693 | 180742
7 | 40:09.68 | 5:11.09 | 180743 | 204076
8 | 45:21.02 | 8:02.37 | 204077 | 240263
Track 1
Filename F:\Upload\New folder\01 The Pianist.wav
Pre-gap length 0:00:02.00
Peak level 99.9 %
Extraction speed 1.2 X
Track quality 100.0 %
Test CRC D100B956
Copy CRC D100B956
Track not present in AccurateRip database
Copy OK
Track 2
Filename F:\Upload\New folder\02 Kiever.wav
Peak level 95.5 %
Extraction speed 1.3 X
Track quality 100.0 %
Test CRC FEF8E531
Copy CRC FEF8E531
Track not present in AccurateRip database
Copy OK
Track 3
Filename F:\Upload\New folder\03 Ahavas Oylam,Eternal Love.wav
Peak level 96.6 %
Extraction speed 1.5 X
Track quality 100.0 %
Test CRC 82DCAB5C
Copy CRC 82DCAB5C
Track not present in AccurateRip database
Copy OK
Track 4
Filename F:\Upload\New folder\04 Bessarabian Thing.wav
Peak level 96.3 %
Extraction speed 1.4 X
Track quality 100.0 %
Test CRC FDC7A032
Copy CRC FDC7A032
Track not present in AccurateRip database
Copy OK
Track 5
Filename F:\Upload\New folder\05 Nign for Sabbath and Holidays.wav
Peak level 96.6 %
Extraction speed 1.5 X
Track quality 100.0 %
Test CRC 5798700E
Copy CRC 5798700E
Track not present in AccurateRip database
Copy OK
Track 6
Filename F:\Upload\New folder\06 Yiddish Soldier.wav
Peak level 99.9 %
Extraction speed 1.8 X
Track quality 100.0 %
Test CRC BA7A2093
Copy CRC BA7A2093
Track not present in AccurateRip database
Copy OK
Track 7
Filename F:\Upload\New folder\07 Ah Zoy.wav
Peak level 95.5 %
Extraction speed 1.8 X
Track quality 100.0 %
Test CRC 17A2AB85
Copy CRC 17A2AB85
Track not present in AccurateRip database
Copy OK
Track 8
Filename F:\Upload\New folder\08 New Khosidls.wav
Peak level 96.6 %
Extraction speed 2.0 X
Track quality 100.0 %
Test CRC 35DBC099
Copy CRC 35DBC099
Track not present in AccurateRip database
Copy OK
None of the tracks are present in the AccurateRip database
No errors occurred
End of status report
 
Содержание индексной карты (.CUE)
REM DATE 2011
REM DISCID 5C0C8308
REM COMMENT "ExactAudioCopy v1.0b2"
PERFORMER "Joel Rubin/Uri Caine Duo"
TITLE "Azoy Tsu Tsveyt"
FILE "01 The Pianist.wav" WAVE
TRACK 01 AUDIO
TITLE "The Pianist"
PERFORMER "Joel Rubin/Uri Caine Duo"
INDEX 01 00:00:00
FILE "02 Kiever.wav" WAVE
TRACK 02 AUDIO
TITLE "Kiever"
PERFORMER "Joel Rubin/Uri Caine Duo"
INDEX 01 00:00:00
FILE "03 Ahavas Oylam,Eternal Love.wav" WAVE
TRACK 03 AUDIO
TITLE "Ahavas Oylam/Eternal Love"
PERFORMER "Joel Rubin/Uri Caine Duo"
INDEX 01 00:00:00
FILE "04 Bessarabian Thing.wav" WAVE
TRACK 04 AUDIO
TITLE "Bessarabian Thing"
PERFORMER "Joel Rubin/Uri Caine Duo"
INDEX 01 00:00:00
FILE "05 Nign for Sabbath and Holidays.wav" WAVE
TRACK 05 AUDIO
TITLE "Nign for Sabbath and Holidays"
PERFORMER "Joel Rubin/Uri Caine Duo"
INDEX 01 00:00:00
FILE "06 Yiddish Soldier.wav" WAVE
TRACK 06 AUDIO
TITLE "Yiddish Soldier"
PERFORMER "Joel Rubin/Uri Caine Duo"
INDEX 01 00:00:00
FILE "07 Ah Zoy.wav" WAVE
TRACK 07 AUDIO
TITLE "Ah Zoy"
PERFORMER "Joel Rubin/Uri Caine Duo"
INDEX 01 00:00:00
FILE "08 New Khosidls.wav" WAVE
TRACK 08 AUDIO
TITLE "New Khosidls"
PERFORMER "Joel Rubin/Uri Caine Duo"
INDEX 01 00:00:00
 
Об альбоме (сборнике)
The first release on Tzadik by one of the most celebrated and skilled clarinetists in the New Jewish Renaissance features Joel Rubin in a surprising and exciting new context—the fascinating and vibrant intersection between Jewish music and jazz. Joined by the versatile virtuoso Uri Caine on piano, they perform a freewheeling repertoire of Old and New World nigunim, cantorial music, klezmer classics and more. A fervent jazz fan since the age of nine, Joel shines like never before in this passionate meeting of modern Jewish masters.
 
Состав
Uri Caine: Fender Rhodes, Hammond Organ
Joel Rubin: Clarinet
Any questions -> support@pro-jazz.com. По всем вопросам пишите -> support@pro-jazz.com
23:03
141
Нет комментариев. Ваш будет первым!