Вы используете незарегистрированную версию компонента "Вкладки"!

Поиск

(Klezmer Jazz) Davka - The Golem - 2003, APE (tracks+.cue), lossless

(Klezmer Jazz) Davka - The Golem - 2003, APE (tracks+.cue), lossless
Треклист:
Davka / The Golem
Жанр: Klezmer Jazz
Страна-производитель диска: US
Год издания диска: 2003
Издатель (лейбл): Tzadik
Номер по каталогу: #7185
Аудиокодек: APE
Тип рипа: tracks+.cue
Битрейт аудио: lossless
Продолжительность: 48:48
Источник (релизер): Aeacos - Спасибо!
Наличие сканов в содержимом раздачи: да
Треклист:
1. The Man Of Clay - 0:40
2. Consulting The Stars - 1:05
3. Miriam's Theme - 0:39
4. Tsuris - 0:47
5. Reb Yehuda's Theme - 1:16
6. Slach Lanu - 0:49
7. Edict Decreed - 0:40
8. At Court - 1:21
9. The Book Of Formation - 0:58
10. Florian's Theme - 2:47
11. Conjured In Mud - 1:02
12. Circling Sevens - 1:32
13. Flirting - 0:53
14. The Golem Rises - 3:09
15. Eshet Chayil - 1:07
16. Astaroth And Lavy's Dream - 2:14
17. The Oy Of Creation - 1:17
18. My Man Clay - 2:39
19. Golem At Court - 3:34
20. Introduction To Destruction - 3:02
21. Franken Hora - 1:30
22. Moc Reprise & Lament - 1:46
23. Ghetto Freilach - 1:49
24. Mi Yemalel - 1:02
25. The Golem Rises Again - 4:57
26. Burning Ghetto - 1:06
27. Impossible Love - 1:12
28. Together Again - 0:45
29. Di Goyim - 0:54;
30. Helliger Mackeral Hora - 0:30
31. Freedom Is A Cruel Joke - 0:58
32. Moc Finale - 0:47
 
Лог создания рипа
Exact Audio Copy V1.0 beta 2 from 29. April 2011
EAC extraction logfile from 5. August 2011, 16:41
Davka / The Golem
Used drive : PBDS DVD+-RW DS-8W1P Adapter: 0 ID: 0
Read mode : Secure
Utilize accurate stream : Yes
Defeat audio cache : Yes
Make use of C2 pointers : No
Read offset correction : 594
Overread into Lead-In and Lead-Out : No
Fill up missing offset samples with silence : Yes
Delete leading and trailing silent blocks : No
Null samples used in CRC calculations : Yes
Used interface : Native Win32 interface for Win NT & 2000
Gap handling : Appended to previous track
Used output format : Internal WAV Routines
Sample format : 44.100 Hz; 16 Bit; Stereo
TOC of the extracted CD
Track | Start | Length | Start sector | End sector
---------------------------------------------------------
1 | 0:00.00 | 0:40.18 | 0 | 3017
2 | 0:40.18 | 1:04.69 | 3018 | 7886
3 | 1:45.12 | 0:39.32 | 7887 | 10843
4 | 2:24.44 | 0:47.22 | 10844 | 14390
5 | 3:11.66 | 1:15.33 | 14391 | 20048
6 | 4:27.24 | 0:49.29 | 20049 | 23752
7 | 5:16.53 | 0:40.19 | 23753 | 26771
8 | 5:56.72 | 1:20.53 | 26772 | 32824
9 | 7:17.50 | 0:57.41 | 32825 | 37140
10 | 8:15.16 | 2:46.63 | 37141 | 49653
11 | 11:02.04 | 1:01.73 | 49654 | 54301
12 | 12:04.02 | 1:32.15 | 54302 | 61216
13 | 13:36.17 | 0:53.17 | 61217 | 65208
14 | 14:29.34 | 3:08.52 | 65209 | 79360
15 | 17:38.11 | 1:06.43 | 79361 | 84353
16 | 18:44.54 | 2:13.72 | 84354 | 94400
17 | 20:58.51 | 1:16.71 | 94401 | 100171
18 | 22:15.47 | 2:38.67 | 100172 | 112088
19 | 24:54.39 | 3:33.53 | 112089 | 128116
20 | 28:28.17 | 3:02.17 | 128117 | 141783
21 | 31:30.34 | 1:29.64 | 141784 | 148522
22 | 33:00.23 | 1:46.31 | 148523 | 156503
23 | 34:46.54 | 1:48.67 | 156504 | 164670
24 | 36:35.46 | 1:02.21 | 164671 | 169341
25 | 37:37.67 | 4:56.38 | 169342 | 191579
26 | 42:34.30 | 1:05.70 | 191580 | 196524
27 | 43:40.25 | 1:12.13 | 196525 | 201937
28 | 44:52.38 | 0:45.35 | 201938 | 205347
29 | 45:37.73 | 0:53.54 | 205348 | 209376
30 | 46:31.52 | 0:30.28 | 209377 | 211654
31 | 47:02.05 | 0:58.12 | 211655 | 216016
32 | 48:00.17 | 0:46.39 | 216017 | 219505
Track 1
Filename F:\Upload\Davka - The Golem (2003) Lossless\01 The Man Of Clay.wav
Pre-gap length 0:00:02.00
Peak level 98.8 %
Extraction speed 0.5 X
Track quality 100.0 %
Test CRC 73E9AC04
Copy CRC 73E9AC04
Accurately ripped (confidence 1) [CBC5009B] (AR v1)
Copy OK
Track 2
Filename F:\Upload\Davka - The Golem (2003) Lossless\02 Consulting The Stars.wav
Peak level 80.7 %
Extraction speed 0.7 X
Track quality 100.0 %
Test CRC A49669F9
Copy CRC A49669F9
Accurately ripped (confidence 1) [27502088] (AR v1)
Copy OK
Track 3
Filename F:\Upload\Davka - The Golem (2003) Lossless\03 Miriam's Theme.wav
Peak level 47.5 %
Extraction speed 0.6 X
Track quality 100.0 %
Test CRC BC69A4DF
Copy CRC BC69A4DF
Accurately ripped (confidence 1) [AE76269E] (AR v1)
Copy OK
Track 4
Filename F:\Upload\Davka - The Golem (2003) Lossless\04 Tsuris.wav
Peak level 77.4 %
Extraction speed 0.6 X
Track quality 100.0 %
Test CRC A03F6B45
Copy CRC A03F6B45
Accurately ripped (confidence 1) [1F5428CA] (AR v1)
Copy OK
Track 5
Filename F:\Upload\Davka - The Golem (2003) Lossless\05 Reb Yehuda's Theme.wav
Peak level 86.9 %
Extraction speed 0.8 X
Track quality 100.0 %
Test CRC 4061E3C5
Copy CRC 4061E3C5
Accurately ripped (confidence 1) [E8136E2B] (AR v1)
Copy OK
Track 6
Filename F:\Upload\Davka - The Golem (2003) Lossless\06 Slach Lanu.wav
Peak level 98.8 %
Extraction speed 0.7 X
Track quality 100.0 %
Test CRC C3356199
Copy CRC C3356199
Accurately ripped (confidence 1) [6F7F2226] (AR v1)
Copy OK
Track 7
Filename F:\Upload\Davka - The Golem (2003) Lossless\07 Edict Decreed.wav
Peak level 74.4 %
Extraction speed 0.6 X
Track quality 100.0 %
Test CRC 6C0BA512
Copy CRC 6C0BA512
Accurately ripped (confidence 1) [4B7F62F8] (AR v1)
Copy OK
Track 8
Filename F:\Upload\Davka - The Golem (2003) Lossless\08 At Court.wav
Peak level 98.8 %
Extraction speed 0.8 X
Track quality 100.0 %
Test CRC BF324AFC
Copy CRC BF324AFC
Accurately ripped (confidence 1) [4A9D8529] (AR v1)
Copy OK
Track 9
Filename F:\Upload\Davka - The Golem (2003) Lossless\09 The Book Of Formation.wav
Peak level 98.8 %
Extraction speed 0.8 X
Track quality 100.0 %
Test CRC F612EAD5
Copy CRC F612EAD5
Accurately ripped (confidence 1) [9B20713F] (AR v1)
Copy OK
Track 10
Filename F:\Upload\Davka - The Golem (2003) Lossless\10 Florian's Theme.wav
Peak level 98.8 %
Extraction speed 1.1 X
Track quality 100.0 %
Test CRC ED00FF12
Copy CRC ED00FF12
Accurately ripped (confidence 1) [65669ABF] (AR v1)
Copy OK
Track 11
Filename F:\Upload\Davka - The Golem (2003) Lossless\11 Conjured In Mud.wav
Peak level 79.9 %
Extraction speed 0.9 X
Track quality 100.0 %
Test CRC 6D485F07
Copy CRC 6D485F07
Accurately ripped (confidence 1) [267931EE] (AR v1)
Copy OK
Track 12
Filename F:\Upload\Davka - The Golem (2003) Lossless\12 Circling Sevens.wav
Peak level 98.8 %
Extraction speed 1.0 X
Track quality 100.0 %
Test CRC C4F3B411
Copy CRC C4F3B411
Accurately ripped (confidence 1) [A12CE86B] (AR v1)
Copy OK
Track 13
Filename F:\Upload\Davka - The Golem (2003) Lossless\13 Flirting.wav
Peak level 89.9 %
Extraction speed 0.9 X
Track quality 100.0 %
Test CRC 1D4E0701
Copy CRC 1D4E0701
Accurately ripped (confidence 1) [9674D74C] (AR v1)
Copy OK
Track 14
Filename F:\Upload\Davka - The Golem (2003) Lossless\14 The Golem Rises.wav
Peak level 98.8 %
Extraction speed 1.3 X
Track quality 100.0 %
Test CRC E4522878
Copy CRC E4522878
Accurately ripped (confidence 1) [0F71DC8C] (AR v1)
Copy OK
Track 15
Filename F:\Upload\Davka - The Golem (2003) Lossless\15 Eshet Chayil.wav
Peak level 63.2 %
Extraction speed 1.0 X
Track quality 100.0 %
Test CRC B5AAEF6B
Copy CRC B5AAEF6B
Accurately ripped (confidence 1) [F4AB1B98] (AR v1)
Copy OK
Track 16
Filename F:\Upload\Davka - The Golem (2003) Lossless\16 Astaroth And Lavy's Dream.wav
Peak level 98.8 %
Extraction speed 1.2 X
Track quality 100.0 %
Test CRC A751913C
Copy CRC A751913C
Accurately ripped (confidence 1) [0F000A34] (AR v1)
Copy OK
Track 17
Filename F:\Upload\Davka - The Golem (2003) Lossless\17 The Oy Of Creation.wav
Peak level 78.3 %
Extraction speed 1.1 X
Track quality 100.0 %
Test CRC C5C7AD10
Copy CRC C5C7AD10
Accurately ripped (confidence 1) [E56DFEE9] (AR v1)
Copy OK
Track 18
Filename F:\Upload\Davka - The Golem (2003) Lossless\18 My Man Clay.wav
Peak level 79.4 %
Extraction speed 1.4 X
Track quality 100.0 %
Test CRC 8AA5BBF9
Copy CRC 8AA5BBF9
Accurately ripped (confidence 1) [EE5B1373] (AR v1)
Copy OK
Track 19
Filename F:\Upload\Davka - The Golem (2003) Lossless\19 Golem At Court.wav
Peak level 95.5 %
Extraction speed 1.5 X
Track quality 100.0 %
Test CRC 878551DC
Copy CRC 878551DC
Accurately ripped (confidence 1) [3FDFD847] (AR v1)
Copy OK
Track 20
Filename F:\Upload\Davka - The Golem (2003) Lossless\20 Introduction To Destruction.wav
Peak level 98.8 %
Extraction speed 1.4 X
Track quality 99.9 %
Test CRC 00189A16
Copy CRC 00189A16
Accurately ripped (confidence 1) [19DFC33C] (AR v1)
Copy OK
Track 21
Filename F:\Upload\Davka - The Golem (2003) Lossless\21 Franken Hora.wav
Peak level 98.8 %
Extraction speed 1.3 X
Track quality 100.0 %
Test CRC 74FD9B39
Copy CRC 74FD9B39
Accurately ripped (confidence 1) [15191BAD] (AR v1)
Copy OK
Track 22
Filename F:\Upload\Davka - The Golem (2003) Lossless\22 Moc Reprise & Lament.wav
Peak level 96.9 %
Extraction speed 1.4 X
Track quality 100.0 %
Test CRC F884B007
Copy CRC F884B007
Accurately ripped (confidence 1) [8318EA65] (AR v1)
Copy OK
Track 23
Filename F:\Upload\Davka - The Golem (2003) Lossless\23 Ghetto Freilach.wav
Peak level 98.8 %
Extraction speed 1.2 X
Track quality 99.9 %
Test CRC DC1445CC
Copy CRC DC1445CC
Accurately ripped (confidence 1) [F165D9D0] (AR v1)
Copy OK
Track 24
Filename F:\Upload\Davka - The Golem (2003) Lossless\24 Mi Yemalel.wav
Peak level 50.3 %
Extraction speed 1.2 X
Track quality 100.0 %
Test CRC 43483F34
Copy CRC 43483F34
Accurately ripped (confidence 1) [ED0BB6DF] (AR v1)
Copy OK
Track 25
Filename F:\Upload\Davka - The Golem (2003) Lossless\25 The Golem Rises Again.wav
Peak level 98.8 %
Extraction speed 1.8 X
Track quality 100.0 %
Test CRC 4313CBC3
Copy CRC 4313CBC3
Accurately ripped (confidence 1) [2E5D73E2] (AR v1)
Copy OK
Track 26
Filename F:\Upload\Davka - The Golem (2003) Lossless\26 Burning Ghetto.wav
Peak level 51.3 %
Extraction speed 1.3 X
Track quality 100.0 %
Test CRC 0D2C8355
Copy CRC 0D2C8355
Accurately ripped (confidence 1) [549194D3] (AR v1)
Copy OK
Track 27
Filename F:\Upload\Davka - The Golem (2003) Lossless\27 Impossible Love.wav
Peak level 50.8 %
Extraction speed 1.4 X
Track quality 100.0 %
Test CRC 7965393D
Copy CRC 7965393D
Accurately ripped (confidence 1) [BFF867B1] (AR v1)
Copy OK
Track 28
Filename F:\Upload\Davka - The Golem (2003) Lossless\28 Together Again.wav
Peak level 64.4 %
Extraction speed 0.8 X
Track quality 99.7 %
Test CRC 9110CCA9
Copy CRC 9110CCA9
Accurately ripped (confidence 1) [8C969168] (AR v1)
Copy OK
Track 29
Filename F:\Upload\Davka - The Golem (2003) Lossless\29 Di Goyim.wav
Peak level 77.2 %
Extraction speed 1.2 X
Track quality 100.0 %
Test CRC 2DC37703
Copy CRC 2DC37703
Accurately ripped (confidence 1) [98946871] (AR v1)
Copy OK
Track 30
Filename F:\Upload\Davka - The Golem (2003) Lossless\30 Helliger Mackeral Hora.wav
Peak level 98.8 %
Extraction speed 1.0 X
Track quality 100.0 %
Test CRC F6ACC2BC
Copy CRC F6ACC2BC
Accurately ripped (confidence 1) [4D3681CB] (AR v1)
Copy OK
Track 31
Filename F:\Upload\Davka - The Golem (2003) Lossless\31 Freedom Is A Cruel Joke.wav
Peak level 74.0 %
Extraction speed 1.3 X
Track quality 100.0 %
Test CRC AD3320D1
Copy CRC AD3320D1
Accurately ripped (confidence 1) [DAF8A9AF] (AR v1)
Copy OK
Track 32
Filename F:\Upload\Davka - The Golem (2003) Lossless\32 Moc Finale.wav
Peak level 85.7 %
Extraction speed 0.9 X
Track quality 99.7 %
Test CRC C5F7A9ED
Copy CRC C5F7A9ED
Accurately ripped (confidence 1) [5E10CE6C] (AR v1)
Copy OK
All tracks accurately ripped
No errors occurred
End of status report
 
Содержание индексной карты (.CUE)
REM GENRE Klezmer
REM DATE 2003
REM DISCID DF0B6E20
REM COMMENT "ExactAudioCopy v1.0b2"
PERFORMER "Davka"
TITLE "The Golem"
FILE "01 The Man Of Clay.wav" WAVE
TRACK 01 AUDIO
TITLE "The Man Of Clay"
PERFORMER "Davka"
INDEX 01 00:00:00
FILE "02 Consulting The Stars.wav" WAVE
TRACK 02 AUDIO
TITLE "Consulting The Stars"
PERFORMER "Davka"
INDEX 01 00:00:00
FILE "03 Miriam's Theme.wav" WAVE
TRACK 03 AUDIO
TITLE "Miriam's Theme"
PERFORMER "Davka"
INDEX 01 00:00:00
FILE "04 Tsuris.wav" WAVE
TRACK 04 AUDIO
TITLE "Tsuris"
PERFORMER "Davka"
INDEX 01 00:00:00
FILE "05 Reb Yehuda's Theme.wav" WAVE
TRACK 05 AUDIO
TITLE "Reb Yehuda's Theme"
PERFORMER "Davka"
INDEX 01 00:00:00
FILE "06 Slach Lanu.wav" WAVE
TRACK 06 AUDIO
TITLE "Slach Lanu"
PERFORMER "Davka"
INDEX 01 00:00:00
FILE "07 Edict Decreed.wav" WAVE
TRACK 07 AUDIO
TITLE "Edict Decreed"
PERFORMER "Davka"
INDEX 01 00:00:00
FILE "08 At Court.wav" WAVE
TRACK 08 AUDIO
TITLE "At Court"
PERFORMER "Davka"
INDEX 01 00:00:00
FILE "09 The Book Of Formation.wav" WAVE
TRACK 09 AUDIO
TITLE "The Book Of Formation"
PERFORMER "Davka"
INDEX 01 00:00:00
FILE "10 Florian's Theme.wav" WAVE
TRACK 10 AUDIO
TITLE "Florian's Theme"
PERFORMER "Davka"
INDEX 01 00:00:00
FILE "11 Conjured In Mud.wav" WAVE
TRACK 11 AUDIO
TITLE "Conjured In Mud"
PERFORMER "Davka"
INDEX 01 00:00:00
FILE "12 Circling Sevens.wav" WAVE
TRACK 12 AUDIO
TITLE "Circling Sevens"
PERFORMER "Davka"
INDEX 01 00:00:00
FILE "13 Flirting.wav" WAVE
TRACK 13 AUDIO
TITLE "Flirting"
PERFORMER "Davka"
INDEX 01 00:00:00
FILE "14 The Golem Rises.wav" WAVE
TRACK 14 AUDIO
TITLE "The Golem Rises"
PERFORMER "Davka"
INDEX 01 00:00:00
FILE "15 Eshet Chayil.wav" WAVE
TRACK 15 AUDIO
TITLE "Eshet Chayil"
PERFORMER "Davka"
INDEX 01 00:00:00
FILE "16 Astaroth And Lavy's Dream.wav" WAVE
TRACK 16 AUDIO
TITLE "Astaroth And Lavy's Dream"
PERFORMER "Davka"
INDEX 01 00:00:00
FILE "17 The Oy Of Creation.wav" WAVE
TRACK 17 AUDIO
TITLE "The Oy Of Creation"
PERFORMER "Davka"
INDEX 01 00:00:00
FILE "18 My Man Clay.wav" WAVE
TRACK 18 AUDIO
TITLE "My Man Clay"
PERFORMER "Davka"
INDEX 01 00:00:00
FILE "19 Golem At Court.wav" WAVE
TRACK 19 AUDIO
TITLE "Golem At Court"
PERFORMER "Davka"
INDEX 01 00:00:00
FILE "20 Introduction To Destruction.wav" WAVE
TRACK 20 AUDIO
TITLE "Introduction To Destruction"
PERFORMER "Davka"
INDEX 01 00:00:00
FILE "21 Franken Hora.wav" WAVE
TRACK 21 AUDIO
TITLE "Franken Hora"
PERFORMER "Davka"
INDEX 01 00:00:00
FILE "22 Moc Reprise & Lament.wav" WAVE
TRACK 22 AUDIO
TITLE "Moc Reprise & Lament"
PERFORMER "Davka"
INDEX 01 00:00:00
FILE "23 Ghetto Freilach.wav" WAVE
TRACK 23 AUDIO
TITLE "Ghetto Freilach"
PERFORMER "Davka"
INDEX 01 00:00:00
FILE "24 Mi Yemalel.wav" WAVE
TRACK 24 AUDIO
TITLE "Mi Yemalel"
PERFORMER "Davka"
INDEX 01 00:00:00
FILE "25 The Golem Rises Again.wav" WAVE
TRACK 25 AUDIO
TITLE "The Golem Rises Again"
PERFORMER "Davka"
INDEX 01 00:00:00
FILE "26 Burning Ghetto.wav" WAVE
TRACK 26 AUDIO
TITLE "Burning Ghetto"
PERFORMER "Davka"
INDEX 01 00:00:00
FILE "27 Impossible Love.wav" WAVE
TRACK 27 AUDIO
TITLE "Impossible Love"
PERFORMER "Davka"
INDEX 01 00:00:00
FILE "28 Together Again.wav" WAVE
TRACK 28 AUDIO
TITLE "Together Again"
PERFORMER "Davka"
INDEX 01 00:00:00
FILE "29 Di Goyim.wav" WAVE
TRACK 29 AUDIO
TITLE "Di Goyim"
PERFORMER "Davka"
INDEX 01 00:00:00
FILE "30 Helliger Mackeral Hora.wav" WAVE
TRACK 30 AUDIO
TITLE "Helliger Mackeral Hora"
PERFORMER "Davka"
INDEX 01 00:00:00
FILE "31 Freedom Is A Cruel Joke.wav" WAVE
TRACK 31 AUDIO
TITLE "Freedom Is A Cruel Joke"
PERFORMER "Davka"
INDEX 01 00:00:00
FILE "32 Moc Finale.wav" WAVE
TRACK 32 AUDIO
TITLE "Moc Finale"
PERFORMER "Davka"
INDEX 01 00:00:00
 
Об альбоме (сборнике)
Always at the forefront of the New Jewish Renaissance, the San Francisco based ensemble Davka here performs Daniel Hoffman's brilliant and dramatic score to the silent film masterpiece The Golem. Condensed and sequenced into a satisfying suite for this special Tzadik CD, the music here is a hypnotic mix of mysterious moods and sounds to chill the bone. Another important release by this dynamic band of Jewish masters.
 
Состав
Paul Hanson: Bassoon, Clarinet
Daniel Hoffman: Violin
Kevin Mummey: Dumbeg, Zarb
Moses Sedler: Cello
Any questions -> support@pro-jazz.com. По всем вопросам пишите -> support@pro-jazz.com
22:57
187
Нет комментариев. Ваш будет первым!