Вы используете незарегистрированную версию компонента "Вкладки"!

Поиск

(Jewish, French Pop, Chanson francaise, Tzadik) VA - Great Jewish Music: Serge Gainsbourg - 1997, FLAC (tracks+.cue) lossless

(Jewish, French Pop, Chanson francaise, Tzadik) VA - Great Jewish Music: Serge Gainsbourg - 1997, FLAC (tracks+.cue) lossless
Треклист:
VA / Great Jewish Music: Serge Gainsbourg
Жанр: Jewish, French Pop, Chanson française, Tzadik
Страна-производитель диска: U.S.A.
Год издания диска: 1997
Издатель (лейбл): Tzadik
Номер по каталогу: TZ 7116
Аудиокодек: FLAC
Тип рипа: tracks+.cue
Битрейт аудио: lossless
Продолжительность: 1:16:39
Источник: CD
сайт-источник/ник/другое: Max Monteiro
Наличие сканов в содержимом раздачи: нет
Треклист:
01. Elysian Fields: Les Amours perdues (arr. by Elysian Fields) 3:29
02. Mike Patton: Ford Mustang (arr. by Mike Patton) 2:41
03. Wayne Horvitz & Robin Holcomb: Bonnie and Clyde (arr. by Wayne Horvitz & Robin Holcomb) 5:08
04. Cyro Baptista: Là-bas c’est naturel (arr. by Cyro Baptista) 5:30
05. Kramer: 69 année érotique (arr. by Kramer) 4:17
06. Ikue Mori: Pauvre Lola (arr. by Ikue Mori) 2:49
07. Fred Frith: The Ballad of Melody Nelson (arr. by Fred Frith) 2:05
08. Jon: Les Sucettes (arr. by Jon) 2:44
09. Ruins: L’Homme à tête de chou (arr. by Ruins) 3:18
10. Anthony Coleman: Ce mortel ennui (arr. by Anthony Coleman) 4:10
11. Eszter Balint: Un poison violent, c’est ça l’amour (featuring Eszter Balint) 5:05
12. David Shea: Initials B.B. (arr. by David Shea) 3:48
13. Eyvind Kang: Sous le soleil exactement (arr. by Eyvind Kang) 3:44
14. Steve Beresford: Couleur café (arr. by Steve Beresford) 3:07
15. Blonde Redhead: La Chanson de Slogan (arr. by Blonde Redhead) 3:47
16. John Zorn: Contact (arr. by John Zorn) 2:20
17. Cibo Matto: Je t’aime, moi non plus (arr. by Cibo Matto) 4:21
18. Medeski Martin & Wood: Intoxicated Man (arr. by Medeski, Martin & Wood) 3:31
19. Shelley Hirsch: Comic Strip (arr. by Shelley Hirsch) 1:59
20. Franz Treichler: Requiem pour un con (arr. by Franz Treichler) 5:00
21. Marc Ribot: Black Trombone (arr. by Marc Ribot) 3:45
Music and lyrics by Serge Gainsbourg.
 
Лог создания рипа
Exact Audio Copy V1.0 beta 3 from 29. August 2011
EAC extraction logfile from 2. April 2013, 16:47
VA / Great Jewish Music: Serge Gainsbourg
Used drive : SlimtypeeNAU508 5 Adapter: 1 ID: 0
Read mode : Secure
Utilize accurate stream : Yes
Defeat audio cache : Yes
Make use of C2 pointers : No
Read offset correction : 6
Overread into Lead-In and Lead-Out : No
Fill up missing offset samples with silence : Yes
Delete leading and trailing silent blocks : No
Null samples used in CRC calculations : Yes
Used interface : Native Win32 interface for Win NT & 2000
Gap handling : Appended to previous track
Used output format : User Defined Encoder
Selected bitrate : 768 kBit/s
Quality : High
Add ID3 tag : No
Command line compressor : C:\Program Files (x86)\Exact Audio Copy\Flac\flac.exe
Additional command line options : -8 -V -T "ARTIST=%artist%" -T "TITLE=%title%" -T "ALBUM=%albumtitle%" -T "DATE=%year%" -T "TRACKNUMBER=%tracknr%" -T "GENRE=%genre%" -T "PERFORMER=%albuminterpret%" -T "COMPOSER=%composer%" %haslyrics%--tag-from-file=LYRICS="%lyricsfile%"%haslyrics% -T "ALBUMARTIST=%albumartist%" -T "DISCNUMBER=%cdnumber%" -T "TOTALDISCS=%totalcds%" -T "TOTALTRACKS=%numtracks%" -T "COMMENT=%comment%" %source% -o %dest%
TOC of the extracted CD
Track | Start | Length | Start sector | End sector
---------------------------------------------------------
1 | 0:00.00 | 3:28.70 | 0 | 15669
2 | 3:28.70 | 2:40.67 | 15670 | 27736
3 | 6:09.62 | 5:08.05 | 27737 | 50841
4 | 11:17.67 | 5:30.13 | 50842 | 75604
5 | 16:48.05 | 4:16.47 | 75605 | 94851
6 | 21:04.52 | 2:49.00 | 94852 | 107526
7 | 23:53.52 | 2:04.53 | 107527 | 116879
8 | 25:58.30 | 2:44.20 | 116880 | 129199
9 | 28:42.50 | 3:18.20 | 129200 | 144069
10 | 32:00.70 | 4:10.07 | 144070 | 162826
11 | 36:11.02 | 5:05.13 | 162827 | 185714
12 | 41:16.15 | 3:48.00 | 185715 | 202814
13 | 45:04.15 | 3:44.25 | 202815 | 219639
14 | 48:48.40 | 3:07.30 | 219640 | 233694
15 | 51:55.70 | 3:46.57 | 233695 | 250701
16 | 55:42.52 | 2:20.18 | 250702 | 261219
17 | 58:02.70 | 4:20.60 | 261220 | 280779
18 | 62:23.55 | 3:31.07 | 280780 | 296611
19 | 65:54.62 | 1:58.73 | 296612 | 305534
20 | 67:53.60 | 4:59.50 | 305535 | 328009
21 | 72:53.35 | 3:45.05 | 328010 | 344889
Track 1
Filename C:\EAC rips\01 - Les Amours perdues.wav
Pre-gap length 0:00:02.00
Peak level 99.9 %
Extraction speed 1.1 X
Track quality 100.0 %
Test CRC ECF2A103
Copy CRC ECF2A103
Accurately ripped (confidence 2) [1E048360] (AR v2)
Copy OK
Track 2
Filename C:\EAC rips\02 - Ford Mustang.wav
Peak level 98.8 %
Extraction speed 1.1 X
Track quality 100.0 %
Test CRC ED6560B7
Copy CRC ED6560B7
Accurately ripped (confidence 2) [4F682A61] (AR v2)
Copy OK
Track 3
Filename C:\EAC rips\03 - Bonnie and Clyde.wav
Peak level 98.8 %
Extraction speed 1.2 X
Track quality 99.9 %
Test CRC 8DF40418
Copy CRC 8DF40418
Accurately ripped (confidence 2) [75A2FEE4] (AR v2)
Copy OK
Track 4
Filename C:\EAC rips\04 - Là-bas c'est naturel.wav
Peak level 98.8 %
Extraction speed 1.5 X
Track quality 100.0 %
Test CRC BBAC9758
Copy CRC BBAC9758
Accurately ripped (confidence 2) [2315085C] (AR v2)
Copy OK
Track 5
Filename C:\EAC rips\05 - 69 année érotique.wav
Peak level 98.8 %
Extraction speed 1.4 X
Track quality 99.9 %
Test CRC C5F572BE
Copy CRC C5F572BE
Accurately ripped (confidence 2) [38E48AB5] (AR v2)
Copy OK
Track 6
Filename C:\EAC rips\06 - Pauvre Lola.wav
Peak level 98.8 %
Extraction speed 1.3 X
Track quality 99.9 %
Test CRC 5D9DF9A7
Copy CRC 5D9DF9A7
Accurately ripped (confidence 2) [507111DC] (AR v2)
Copy OK
Track 7
Filename C:\EAC rips\07 - The Ballad of Melody Nelson.wav
Peak level 98.8 %
Extraction speed 1.5 X
Track quality 100.0 %
Test CRC A903B028
Copy CRC A903B028
Accurately ripped (confidence 2) [53D84796] (AR v2)
Copy OK
Track 8
Filename C:\EAC rips\08 - Les Sucettes.wav
Peak level 98.8 %
Extraction speed 1.6 X
Track quality 100.0 %
Test CRC 4BBE0712
Copy CRC 4BBE0712
Accurately ripped (confidence 2) [1A4EDEA0] (AR v2)
Copy OK
Track 9
Filename C:\EAC rips\09 - L'Homme à tête de chou.wav
Peak level 95.6 %
Extraction speed 1.7 X
Track quality 100.0 %
Test CRC 1165E1E8
Copy CRC 1165E1E8
Accurately ripped (confidence 2) [BE526C7D] (AR v2)
Copy OK
Track 10
Filename C:\EAC rips\10 - Ce mortel ennui.wav
Peak level 98.8 %
Extraction speed 1.9 X
Track quality 100.0 %
Test CRC FDA76D7C
Copy CRC FDA76D7C
Accurately ripped (confidence 2) [CAF8DCD1] (AR v2)
Copy OK
Track 11
Filename C:\EAC rips\11 - Un poison violent, c'est ça l'amour.wav
Peak level 98.8 %
Extraction speed 2.0 X
Track quality 100.0 %
Test CRC 9BFBE3DB
Copy CRC 9BFBE3DB
Accurately ripped (confidence 2) [29E8B8AD] (AR v2)
Copy OK
Track 12
Filename C:\EAC rips\12 - Initials B.B..wav
Peak level 83.2 %
Extraction speed 2.0 X
Track quality 100.0 %
Test CRC D389D530
Copy CRC D389D530
Accurately ripped (confidence 2) [0014608D] (AR v2)
Copy OK
Track 13
Filename C:\EAC rips\13 - Sous le soleil exactement.wav
Peak level 79.2 %
Extraction speed 2.1 X
Track quality 100.0 %
Test CRC DD80987F
Copy CRC DD80987F
Accurately ripped (confidence 2) [010A0C76] (AR v2)
Copy OK
Track 14
Filename C:\EAC rips\14 - Couleur café.wav
Peak level 85.9 %
Extraction speed 2.1 X
Track quality 100.0 %
Test CRC 1678C191
Copy CRC 1678C191
Accurately ripped (confidence 2) [ACD233C6] (AR v2)
Copy OK
Track 15
Filename C:\EAC rips\15 - La Chanson de Slogan.wav
Peak level 64.7 %
Extraction speed 1.9 X
Track quality 99.9 %
Test CRC 5491AA1B
Copy CRC 5491AA1B
Accurately ripped (confidence 2) [2D730714] (AR v2)
Copy OK
Track 16
Filename C:\EAC rips\16 - Contact.wav
Peak level 98.8 %
Extraction speed 2.0 X
Track quality 100.0 %
Test CRC 49347567
Copy CRC 49347567
Accurately ripped (confidence 2) [C9AD3B6E] (AR v2)
Copy OK
Track 17
Filename C:\EAC rips\17 - Je t'aime, moi non plus.wav
Peak level 94.5 %
Extraction speed 2.3 X
Track quality 100.0 %
Test CRC 393AA10F
Copy CRC 393AA10F
Accurately ripped (confidence 2) [617A7025] (AR v2)
Copy OK
Track 18
Filename C:\EAC rips\18 - Intoxicated Man.wav
Peak level 92.1 %
Extraction speed 2.3 X
Track quality 100.0 %
Test CRC C32FACD5
Copy CRC C32FACD5
Accurately ripped (confidence 2) [944B16A4] (AR v2)
Copy OK
Track 19
Filename C:\EAC rips\19 - Comic Strip.wav
Peak level 83.2 %
Extraction speed 2.1 X
Track quality 100.0 %
Test CRC C24D996D
Copy CRC C24D996D
Accurately ripped (confidence 2) [CE05F2DF] (AR v2)
Copy OK
Track 20
Filename C:\EAC rips\20 - Requiem pour un con.wav
Peak level 98.8 %
Extraction speed 2.5 X
Track quality 100.0 %
Test CRC 376D40B2
Copy CRC 376D40B2
Accurately ripped (confidence 2) [BBB759B2] (AR v2)
Copy OK
Track 21
Filename C:\EAC rips\21 - Black Trombone.wav
Peak level 74.8 %
Extraction speed 2.5 X
Track quality 100.0 %
Test CRC 345E1F90
Copy CRC 345E1F90
Accurately ripped (confidence 2) [EEC2880D] (AR v2)
Copy OK
All tracks accurately ripped
No errors occurred
End of status report
---- CUETools DB Plugin V2.1.4
[CTDB TOCID: McN9fDX1LV8sUY20BtRae8SE2j0-] found
Submit result: McN9fDX1LV8sUY20BtRae8SE2j0- has been confirmed
Track | CTDB Status
1 | (4/4) Accurately ripped
2 | (4/4) Accurately ripped
3 | (3/4) Accurately ripped
4 | (3/4) Accurately ripped
5 | (4/4) Accurately ripped
6 | (4/4) Accurately ripped
7 | (4/4) Accurately ripped
8 | (4/4) Accurately ripped
9 | (4/4) Accurately ripped
10 | (4/4) Accurately ripped
11 | (4/4) Accurately ripped
12 | (4/4) Accurately ripped
13 | (4/4) Accurately ripped
14 | (4/4) Accurately ripped
15 | (4/4) Accurately ripped
16 | (4/4) Accurately ripped
17 | (4/4) Accurately ripped
18 | (4/4) Accurately ripped
19 | (4/4) Accurately ripped
20 | (4/4) Accurately ripped
21 | (3/4) Accurately ripped
==== Log checksum C5B8F23EEAA94641E9FE7A8D9F385C1911EE2AFCA57BAB29A075C9D8CAB08261 ====
 
Содержание индексной карты (.CUE)
REM GENRE Gainsbarre
REM DATE 1997
REM DISCID 2611F615
REM COMMENT "ExactAudioCopy v1.0b3"
PERFORMER "VA"
TITLE "Great Jewish Music: Serge Gainsbourg"
FILE "01 - Les Amours perdues.wav" WAVE
TRACK 01 AUDIO
TITLE "Les Amours perdues"
PERFORMER "Elysian Fields"
INDEX 01 00:00:00
FILE "02 - Ford Mustang.wav" WAVE
TRACK 02 AUDIO
TITLE "Ford Mustang"
PERFORMER "Mike Patton"
INDEX 01 00:00:00
FILE "03 - Bonnie and Clyde.wav" WAVE
TRACK 03 AUDIO
TITLE "Bonnie and Clyde"
PERFORMER "Wayne Horwitz & Robin Holcomb"
INDEX 01 00:00:00
FILE "04 - Là-bas c'est naturel.wav" WAVE
TRACK 04 AUDIO
TITLE "Là-bas c'est naturel"
PERFORMER "Cyro Baptista"
INDEX 01 00:00:00
FILE "05 - 69 année érotique.wav" WAVE
TRACK 05 AUDIO
TITLE "69 année érotique"
PERFORMER "Kramer"
INDEX 01 00:00:00
FILE "06 - Pauvre Lola.wav" WAVE
TRACK 06 AUDIO
TITLE "Pauvre Lola"
PERFORMER "Ikue Mori"
INDEX 01 00:00:00
FILE "07 - The Ballad of Melody Nelson.wav" WAVE
TRACK 07 AUDIO
TITLE "The Ballad of Melody Nelson"
PERFORMER "Fred Frith"
INDEX 01 00:00:00
FILE "08 - Les Sucettes.wav" WAVE
TRACK 08 AUDIO
TITLE "Les Sucettes"
PERFORMER "Jon"
INDEX 01 00:00:00
FILE "09 - L'Homme à tête de chou.wav" WAVE
TRACK 09 AUDIO
TITLE "L'Homme à tête de chou"
PERFORMER "Ruins"
INDEX 01 00:00:00
FILE "10 - Ce mortel ennui.wav" WAVE
TRACK 10 AUDIO
TITLE "Ce mortel ennui"
PERFORMER "Anthony Coleman"
INDEX 01 00:00:00
FILE "11 - Un poison violent, c'est ça l'amour.wav" WAVE
TRACK 11 AUDIO
TITLE "Un poison violent, c'est ça l'amour"
PERFORMER "Eszter Balint"
INDEX 01 00:00:00
FILE "12 - Initials B.B..wav" WAVE
TRACK 12 AUDIO
TITLE "Initials B.B."
PERFORMER "David Shea"
INDEX 01 00:00:00
FILE "13 - Sous le soleil exactement.wav" WAVE
TRACK 13 AUDIO
TITLE "Sous le soleil exactement"
PERFORMER "Eyvind Kang"
INDEX 01 00:00:00
FILE "14 - Couleur café.wav" WAVE
TRACK 14 AUDIO
TITLE "Couleur café"
PERFORMER "Steve Beresford"
INDEX 01 00:00:00
FILE "15 - La Chanson de Slogan.wav" WAVE
TRACK 15 AUDIO
TITLE "La Chanson de Slogan"
PERFORMER "Blonde Redhead"
INDEX 01 00:00:00
FILE "16 - Contact.wav" WAVE
TRACK 16 AUDIO
TITLE "Contact"
PERFORMER "John Zorn"
INDEX 01 00:00:00
FILE "17 - Je t'aime, moi non plus.wav" WAVE
TRACK 17 AUDIO
TITLE "Je t'aime, moi non plus"
PERFORMER "Cibo Matto"
INDEX 01 00:00:00
FILE "18 - Intoxicated Man.wav" WAVE
TRACK 18 AUDIO
TITLE "Intoxicated Man"
PERFORMER "Medeski Martin & Wood"
INDEX 01 00:00:00
FILE "19 - Comic Strip.wav" WAVE
TRACK 19 AUDIO
TITLE "Comic Strip"
PERFORMER "Shelley Hirsch"
INDEX 01 00:00:00
FILE "20 - Requiem pour un con.wav" WAVE
TRACK 20 AUDIO
TITLE "Requiem pour un con"
PERFORMER "Franz Treichler"
INDEX 01 00:00:00
FILE "21 - Black Trombone.wav" WAVE
TRACK 21 AUDIO
TITLE "Black Trombone"
PERFORMER "Marc Ribot"
INDEX 01 00:00:00
Доп. информация: All recordings produced by the artists themselves, April-July, 1997.
 
Состав
01. Les Amours perdues
Jennifer Charles – Vocals
Oren Bloedow – Guitar, Bass, Drums
Ed Pastorini – Casiotone
Jamie Candiloro – Mix
02. Ford Mustang
Mike Patton – vocals, all instruments
Mike Johnson – engineer
03. Bonnie and Clyde
Robin Holcomb – Vocals
Wayne Horvitz – all instruments
Reggie Watts – Vocals
Tucker Martini – Mix
04. Là-bas c’est naturel
Cyro Baptista – Percussion
Olivier Glissant – Vocals, Accordion
05. 69 année érotique
Kramer – vocals, all instruments
Tess – Background Vocals
06. Pauvre Lola
Haena Kim – Vocals
Marc Ribot – Guitar
Ikue Mori – Drum Machines
Mark Roule – engineer
07. The Ballad of Melody Nelson
Fred Frith – vocals, all instruments
08. Les Sucettes
Jon – Vocals, Harmonium
09. L’Homme à tête de chou
Yoshida Tatsuya – Vocals, Drums
Sasaki Hisashi – Bass
10. Ce mortel ennui
Anthony Coleman – Vocals, Piano
Doug Wieselman – Eb Clarinet
Michael Attias – Baritone Sax
Yaël Bitton – Background Vocals
Joe Johnson – engineer
11. Un poison violent, c’est ça l’amour
Eszter Balint – Vocals
J. D. Foster – Bass, Organ, producer
Eddy Sperry – engineer
Marc Ribot – Guitar, Background Vocals, arrangement
Robert Rodriguez – Drums
12. Initials B.B.
Tiziana Shea – Vocals
David Shea – all instruments
Kurt Ralske – engineer
13. Sous le soleil exactement
Michelle Amar – Vocals, Sound Effects
Eyvind Kang – all instruments
14. Couleur café
Steve Beresford – vocal, all instruments
15. La Chanson de Slogan
Kazu Makino – Vocals
Amadeo Pace – Guitar
Simone Pace – Drums
Guy Picciotto – engineer
16. Contact
John Zorn – All Vocals
17. Je t’aime, moi non plus
Miho Hatori – Vocals, Electric Guitar
Yuka Honda – Keyboards
Timo Ellis – Drums, Vocals
Sean Lennon – Bass, Acoustic Guitar, Vocals
Fred Kevorkian – l’amant français
18. Intoxicated Man
John Medeski – Organ, Vocals
Chris Wood – Bass
Billy Martin – Drums
19. Comic Strip
Shelley Hirsch – All Vocals
20. Requiem pour un con
Franz Treichler & Tronte – vocals, all instruments
21. Black Trombone
Marc Ribot – Guitars, Vocals
Eddy Sperry – engineer
Any questions -> support@pro-jazz.com. По всем вопросам пишите -> support@pro-jazz.com
10:32
213
Нет комментариев. Ваш будет первым!