Поиск

(Jazz/World Fusion/Modern Creative) Francisco Mora Catlett(ex-member of SUN RA) - World Trade Music - 1999, FLAC (image+.cue), lossless

(Jazz/World Fusion/Modern Creative) Francisco Mora Catlett(ex-member of SUN RA) - World Trade Music - 1999, FLAC (image+.cue), lossless
Треклист:
Francisco Mora Catlett(ex-member of SUN RA) - World Trade Music
Жанр: Jazz/World Fusion/Modern Creative
Год выпуска диска: 1999
Производитель диска: USA
Аудио кодек: FLAC
Тип рипа: image+.cue
Битрейт аудио: lossless
Продолжительность: 69:18
Трэклист:
1 Welcome 01:36
2 Iron Mastering 03:34
3 Vitral Force 09:04
4 Hunters Child 06:03
5 Baba 07:44
6 The Other Side of the Mask 04:28
7 Cultural Warrior 09:32
8 Earth Tones Prelude 01:40
9 Sister Harriet 11:45
10 Interlude #4 02:38
11 El Morro 05:55
12 African Mask 03:19
13 Crossroads 01:55
 
отчёт ЕАС
Exact Audio Copy V0.99 prebeta 4 from 23. January 2008
Отчёт EAC об извлечении, выполненном 19. июля 2008, 12:59
Francisco Mora Catlett / World Trade Music
Дисковод: LITE-ON DVDRW SOHW-1213S Adapter: 1 ID: 1
Режим чтения : Достоверность
Использование точного потока : Да
Отключение кэша аудио : Да
Использование указателей C2 : Нет
Коррекция смещения при чтении : 12
Способность читать области Lead-in и Lead-out : Нет
Заполнение пропущенных сэмплов тишиной : Да
Удаление блоков с тишиной в начале и конце : Нет
При вычислениях CRC использовались нулевые сэмплы : Нет
Интерфейс : Встроенный Win32-интерфейс для Win NT/2000
Выходной формат : Пользовательский кодировщик
Выбранный битрейт : 1024 kBit/s
Качество : Высокий
Добавление ID3-тэга : Нет
Утилита сжатия : C:\Program Files\Exact Audio Copy\Flac\FLAC.EXE
Дополнительные параметры : -6 -V -T "ARTIST=%a" -T "TITLE=%t" -T "ALBUM=%g" -T "DATE=%y" -T "TRACKNUMBER=%n" -T "GENRE=%m" -T "COMMENT=%e" %s -o %d
TOC извлечённого CD
Трек | Старт | Длительность | Начальный сектор | Конечный сектор
---------------------------------------------------------------------
1 | 0:00.00 | 1:36.32 | 0 | 7231
2 | 1:36.32 | 3:34.20 | 7232 | 23301
3 | 5:10.52 | 9:04.30 | 23302 | 64131
4 | 14:15.07 | 6:03.04 | 64132 | 91360
5 | 20:18.11 | 7:44.17 | 91361 | 126177
6 | 28:02.28 | 4:28.67 | 126178 | 146344
7 | 32:31.20 | 9:32.47 | 146345 | 189291
8 | 42:03.67 | 1:40.40 | 189292 | 196831
9 | 43:44.32 | 11:45.38 | 196832 | 249744
10 | 55:29.70 | 2:38.05 | 249745 | 261599
11 | 58:08.00 | 5:55.17 | 261600 | 288241
12 | 64:03.17 | 3:19.03 | 288242 | 303169
13 | 67:22.20 | 1:55.71 | 303170 | 311865
Характеристики диапазона извлечения и сообщения об ошибках
Выбранный диапазон
Имя файла C:\Francisco Mora Catlett - World Trade Music\Francisco Mora Catlett - World Trade Music.wav
Пиковый уровень 98.8 %
Качество диапазона 100.0 %
CRC копии B1840CAF
Копирование... OK
Ошибок не произошло
AccurateRip: сводка
Трек 1 нет в базе данных
Трек 2 нет в базе данных
Трек 3 нет в базе данных
Трек 4 нет в базе данных
Трек 5 нет в базе данных
Трек 6 нет в базе данных
Трек 7 нет в базе данных
Трек 8 нет в базе данных
Трек 9 нет в базе данных
Трек 10 нет в базе данных
Трек 11 нет в базе данных
Трек 12 нет в базе данных
Трек 13 нет в базе данных
Ни одного трека нет в базе AccurateRip
Конец отчёта
Персоналии:
Francisco Mora Catlett Percussion, Drums
Marcus Belgrave Trumpet
Vincent Bowens Flute, Sax (Tenor)
Kenn Cox Piano
Andrew Daniels Percussion
Alex Harding Clarinet, Sax (Baritone), Sax (Bass)
Sherman Mitchell Flute, Trombone
Alberto Nacif Percussion
Cassius Richmond Flute, Sax (Alto)
Craig Taborn Piano
Rodney Whitaker Bass
 
Review by Michael G. Nastos
Review by Michael G. Nastos
It's been twenty years since the release of this CD and Mora Catlett's first project ("Mora" on AACE.) In the interim the drummer/percussionist has worked with Max Roach's M'Boom, Sun Ra, and his own band Amigo around the Detroit area. For this recording he employs fellow Detroiters as bassist Rodney Whitaker and pianist Craig Taborn as a core trio. The bulk of the material is piano-bass-drums in a jazz context, though the first four selections are based on traditional Yoruban themes. The others are Mora Catlett originals with varying combinations of musicians, and two larger ensemble pieces. Mora himself is a steady drummer, showing occasional oubursts of power, and has a solid background in the Afro-Cuban rhythmic history, which he liberally sprinkles in. On the four Yoruban numbers Taborn shines. His avant Cecil Taylor-like tendencies are restrained, letting the pure beauty of his concept flower. "Iron Master" is a 6/8 melody with latter period repeated figure, "Hunter's Child" turns dramatic with a cha-cha-cha flavor, while "Baba" is a lilting line. The shimmering, prayer song "Vital Force" is quite reminiscent of Yusef Lateef's "Morning" with an Alice Coltrane-esque spirituality wrapped in a patient 4/4 swing, punctuated by a long drum solo. The larger combo recapitulates the piece from "Mora" "Cultural Warrior," an anthem for pianist Kenn Cox, who appears on the track along with tenor saxophonist Vincent Bowens, echoing in a dramatic, deliberate fashion Cox's undeniable spirit and soul. An even bigger group for "El Morro" provides a loping motif for Cox, Bowens, trumpet soloist Marcus Belgrave, bass clarinetist Alex Harding and flutist/trombonist Sherman Mitchell to collectively fete the leader while he directs this caravan step sound sculpture. The remaining pieces are snippets of piano, percussion or non-piano trio workouts, interludes or preludes. A completely free bash "Crossroads" with Mora and percussionist Andrew Daniels, Harding on baritone sax, Nik Pena on trumpet and Cass Richmond on alto sax, abstractly wails. Pena on sea shells and forest whistles, with Mora, concoct jungle sounds for the convincing "The Other Side Of The Mask." This music has a certain improvised content with Afro-Cuban inflections. Rather than latin jazz it is a true new music, borrowing from modern and ancient traditions, and is best heard as a complete work, more orchestral in nature than several suites or series of unrelated songs. "El Morro" really stands out, perhaps as a tribute to its fearless leader. Recommended.
Собственноручный рип с личного фирменного диска.
Сканы(300 dpi)
02:58
572
Нет комментариев. Ваш будет первым!