Вы используете незарегистрированную версию компонента "Вкладки"!

Поиск

(Jazz/Swing) [24/96] [2LP] Vic Dickenson, The Essential - 1977, FLAC (tracks)

Треклист:
[2LP] Vic Dickenson, The Essential
Жанр: Jazz/Swing
Год выпуска: 1977
Лейбл: Vanguard Recording Society Inc.
Страна-производитель: USA
Аудио кодек: FLAC
Тип рипа: tracks
Формат записи: 24/96
Формат раздачи: 24/96
Продолжительность: 86:15
Треклист:
Disc 1
1. Russian Lullaby
2. Keepin' Out Of Mischief Now
3. Sir Charles At Home
4. Jeepers Creepers
5. I Cover The Waterfront
Disc 2
6. Running Wild
7. When Yaou and I were young, Maggie
8. Nice Work If You Can Get It
9. Old Fashioned Love
10. Everybody Loves My Baby
11. Suspension Blues
12. You brought a new kind of love to me
Источник оцифровки: автором раздачи
Код класса состояния винила: Ex
Устройство воспроизведения: Электроника Б1-01, Ortofon VMS 20 e MK II
Предварительный усилитель: Эстония уп-010
АЦП: emu 0404 usb
Программа-оцифровщик: Sound Forge 10
Обработка: Ручное удаление щелчков, автодекликинг в паузах
 
Спектр
 
спектрограмма
 
Уровень записи
 
Сэмпл
любой трэк
 
Dynamic range meter analysis results
foobar2000 1.1.9 / Dynamic Range Meter 1.1.1
log date: 2011-11-28 11:33:52
--------------------------------------------------------------------------------
Analyzed: Vic Dickenson / The essential
--------------------------------------------------------------------------------
DR Peak RMS Duration Track
--------------------------------------------------------------------------------
DR14 0.00 dB -17.95 dB 9:24 ?-01-Russian lulaby
DR15 0.00 dB -18.01 dB 5:55 ?-02-Keeping out of mischief now
DR16 0.00 dB -19.28 dB 4:42 ?-03-Sir Charles at home
DR15 0.00 dB -18.68 dB 12:06 ?-04-Jeepers creepers
DR17 0.00 dB -21.04 dB 8:29 ?-05-I cover the waterfront
DR16 0.00 dB -19.63 dB 5:36 ?-06-Runnin' wild
--------------------------------------------------------------------------------
Number of tracks: 6
Official DR value: DR15
Samplerate: 96000 Hz
Channels: 2
Bits per sample: 24
Bitrate: 2928 kbps
Codec: FLAC
================================================================================
foobar2000 1.1.9 / Dynamic Range Meter 1.1.1
log date: 2011-11-28 11:38:04
--------------------------------------------------------------------------------
Analyzed: Vic Dickenson / The essential
--------------------------------------------------------------------------------
DR Peak RMS Duration Track
--------------------------------------------------------------------------------
DR15 -3.52 dB -22.87 dB 4:54 ?-07-Wen you and I were young, Maggie
DR14 -0.07 dB -20.28 dB 4:43 ?-08-Nice work if you can get it
--------------------------------------------------------------------------------
Number of tracks: 2
Official DR value: DR14
Samplerate: 96000 Hz
Channels: 2
Bits per sample: 24
Bitrate: 2809 kbps
Codec: FLAC
================================================================================
foobar2000 1.1.9 / Dynamic Range Meter 1.1.1
log date: 2011-11-28 11:38:44
--------------------------------------------------------------------------------
Analyzed: Vic Dickenson / The essential
--------------------------------------------------------------------------------
DR Peak RMS Duration Track
--------------------------------------------------------------------------------
DR16 0.00 dB -21.28 dB 9:36 ?-10-Everybody loves my baby
DR14 -5.41 dB -23.53 dB 8:41 ?-11-Suspension blues
DR16 -1.51 dB -21.92 dB 5:20 ?-12-You brought a new kind of love to me
--------------------------------------------------------------------------------
Number of tracks: 3
Official DR value: DR15
Samplerate: 96000 Hz
Channels: 2
Bits per sample: 24
Bitrate: 2531 kbps
Codec: FLAC
================================================================================
Доп. информация: Запись 1953-1954 годов, диск выпущен в 1977году.
Any questions -> support@pro-jazz.com. По всем вопросам пишите -> support@pro-jazz.com
20:11
284
Нет комментариев. Ваш будет первым!