Поиск

(Jazz/Post-Bop/World Fusion) Gilad Atzmon - Nostalgico - 2005, FLAC (image + .cue), lossless

(Jazz/Post-Bop/World Fusion) Gilad Atzmon - Nostalgico - 2005, FLAC (image + .cue), lossless
Gilad Atzmon - Nostalgico
Страна: Израиль
Жанр: Jazz/Post-Bop/World Fusion
Год выпуска: 2005
Формат: FLAC (image + .cue)
Битрейт аудио: lossless
Продолжительность: 50'01
Трэклист:
1 Paradiso Nostalgico (G Atzmon) 2.36
2 Then & There (G Atzmon) 3.55
3 Singing in the Rain (N H Brown) 7.06
4 20th Century incl parts of It Ain't Necessarily So, Cravan and Mack The Knife 8.26
5 I Got it Bad and That Ain't Good(D Ellington) 6.35
6 In a Sentimental Mood (D Ellington) 6.11
7 Lust for Sale (G Atzmon) 5.11
8 Petit Fleur (S Bechet) 4.52
9 The Devil Sings Again (G Atzmon) 5.09
 
ЕАС
Exact Audio Copy V0.99 prebeta 3 from 28. July 2007
Отчёт EAC об извлечении, выполненном 26. марта 2008, 13:03
Gilad Atzmon / Nostalgico
Дисковод: HL-DT-STDVD-ROM GDR8163B Adapter: 1 ID: 0
Режим чтения : Достоверность
Использование точного потока : Да
Отключение кэша аудио : Да
Использование указателей C2 : Нет
Коррекция смещения при чтении : 102
Способность читать области Lead-in и Lead-out : Нет
Заполнение пропущенных сэмплов тишиной : Да
Удаление блоков с тишиной в начале и конце : Нет
При вычислениях CRC использовались нулевые сэмплы : Нет
Интерфейс : Встроенный Win32-интерфейс для Win NT/2000
Выходной формат : Пользовательский кодировщик
Выбранный битрейт : 768 kBit/s
Качество : Высокий
Добавление ID3-тэга : Нет
Утилита сжатия : C:\Program Files\Exact Audio Copy\FLAC\FLAC.EXE
Дополнительные параметры : -6 -V -T "ARTIST=%a" -T "TITLE=%t" -T "ALBUM=%g" -T "DATE=%y" -T "TRACKNUMBER=%n" -T "GENRE=%m" -T "COMMENT=%e" %s -o %d
TOC извлечённого CD
Трек | Старт | Длительность | Начальный сектор | Конечный сектор
---------------------------------------------------------------------
1 | 0:00.00 | 2:40.40 | 0 | 12039
2 | 2:40.40 | 3:57.61 | 12040 | 29875
3 | 6:38.26 | 7:09.35 | 29876 | 62085
4 | 13:47.61 | 8:29.34 | 62086 | 100294
5 | 22:17.20 | 6:37.10 | 100295 | 130079
6 | 28:54.30 | 6:13.63 | 130080 | 158117
7 | 35:08.18 | 5:13.52 | 158118 | 181644
8 | 40:21.70 | 4:55.59 | 181645 | 203828
9 | 45:17.54 | 5:07.09 | 203829 | 226862
10 | 52:56.63 | 7:21.30 | 238263 | 271367
Характеристики диапазона извлечения и сообщения об ошибках
Выбранный диапазон
Имя файла C:\время\Gilad Atzmon - Nostalgico.wav
Пиковый уровень 100.0 %
Качество диапазона 100.0 %
CRC копии 70D330FD
Копирование... OK
Ошибок не произошло
AccurateRip: сводка
Трек 1 нет в базе данных
Трек 2 нет в базе данных
Трек 3 нет в базе данных
Трек 4 нет в базе данных
Трек 5 нет в базе данных
Трек 6 нет в базе данных
Трек 7 нет в базе данных
Трек 8 нет в базе данных
Трек 9 нет в базе данных
Ни одного трека нет в базе AccurateRip
Конец отчёта
Персоналии:
Gilad Atzmon-Sax' & Clarinet
Frank Harrison- piano, Fender Rhodes & melodica,
Asaf Sirkis-Drums & Bandir,
Oli Hayhurst-double bass special guests:
Brian Neil-guitar
Joe De Jesus- trombone, trumpet
Gilad Atzmon born Jun 20, 1963 in Israel
Label: Enja
Catalogue no: TIP 888 841 2
01:44
280
Нет комментариев. Ваш будет первым!