Вы используете незарегистрированную версию компонента "Вкладки"!

Поиск

(Jazz/Post Bop) Adam Makowicz And George Mraz - Concord Duo Series Volume Five - 1993, APE (image+.cue), lossless

(Jazz/Post Bop) Adam Makowicz And George Mraz - Concord Duo Series Volume Five - 1993, APE (image+.cue), lossless
Треклист:
Adam Makowicz And George Mraz - Concord Duo Series Volume Five
Жанр: Jazz/Post Bop
Год выпуска диска: 1993
Производитель диска: U.S.A.
Аудио кодек: APE
Тип рипа: image+.cue
Битрейт аудио: lossless
Продолжительность: 66:16
Трэклист:
01. DON'T EVER LEAVE ME (Kern-Hammerstein) 5:25
02. 400 WEST D-FLAT (A.Makowicz) 5:55
03. WHERE IS LOVE? (L.Bart) 3:55
04. ANYTHING GOES (C.Porter) 7:19
05. MITO (A.Makowicz) 7:35
06. SAY IT ISN'T SO (I.Berlin) 4:40
07. CULEBRA (A.Makowicz) 7:08
08. CONCORDANCE (A.Makowicz) 7:09
09. I LOVES YOU PORGY (Gershwin-Heyward) 5:47
10. INTRODUCTION (0:23)
11. CHEROKEE (R.Noble) 4:10
Доп. информация:
ADAM MAKOWICZ- piano
GEORGE MRAZ- bass
Rec. May 22, 1993
За альбом большое спасибо уважаемой gorall007.
 
Отчёт EAC
Exact Audio Copy V0.99 prebeta 4 from 23. January 2008
EAC extraction logfile from 16. May 2009, 0:50
Adam Makowicz - George Mraz / Adam Makowicz - George Mraz
Used drive : PLEXTOR DVDR PX-800A Adapter: 1 ID: 1
Read mode : Secure
Utilize accurate stream : Yes
Defeat audio cache : Yes
Make use of C2 pointers : No
Read offset correction : 48
Overread into Lead-In and Lead-Out : No
Fill up missing offset samples with silence : Yes
Delete leading and trailing silent blocks : No
Null samples used in CRC calculations : Yes
Used interface : Installed external ASPI interface
Used output format : Internal WAV Routines
Sample format : 44.100 Hz; 16 Bit; Stereo
TOC of the extracted CD
Track | Start | Length | Start sector | End sector
---------------------------------------------------------
1 | 0:00.00 | 5:44.68 | 0 | 25867
2 | 5:44.68 | 8:11.20 | 25868 | 62712
3 | 13:56.13 | 6:11.52 | 62713 | 90589
4 | 20:07.65 | 7:35.53 | 90590 | 124767
5 | 27:43.43 | 7:51.60 | 124768 | 160152
6 | 35:35.28 | 4:55.35 | 160153 | 182312
7 | 40:30.63 | 7:24.02 | 182313 | 215614
8 | 47:54.65 | 7:23.38 | 215615 | 248877
9 | 55:18.28 | 6:00.57 | 248878 | 275934
10 | 61:19.10 | 0:28.43 | 275935 | 278077
11 | 61:47.53 | 4:28.62 | 278078 | 298239
Range status and errors
Selected range
Filename D:\Bass Images\George Mraz\Makowicz-Mraz - Concord Duo\Adam Makowicz - George Mraz.wav
Peak level 99.7 %
Range quality 99.9 %
Copy CRC 78056418
Copy OK
No errors occurred
AccurateRip summary
Track 1 not present in database
Track 2 not present in database
Track 3 not present in database
Track 4 not present in database
Track 5 not present in database
Track 6 not present in database
Track 7 not present in database
Track 8 not present in database
Track 9 not present in database
Track 10 not present in database
Track 11 not present in database
None of the tracks are present in the AccurateRip database
End of status report
Any questions - support@pro-jazz.com.
Есть вопросы - support@pro-jazz.com
19:16
264
Нет комментариев. Ваш будет первым!