Поиск

(Jazz/ECM) Christy Doran/Fredy Studer/Stephan Wittwer - Red Twist & Tuned Arrow - 1987, WAVPack (image + .cue), lossless

(Jazz/ECM) Christy Doran/Fredy Studer/Stephan Wittwer - Red Twist & Tuned Arrow - 1987, WAVPack (image + .cue), lossless
Треклист:
Christy Doran/Fredy Studer/Stephan Wittwer - Red Twist & Tuned Arrow
Страна: Германия
Жанр: Jazz/ECM
Год выпуска: 1987
Формат: WAVPack (image + .cue)
Битрейт аудио: lossless
Продолжительность: 43:29
Трэклист:
1 Canon Cannon
2 1374
3 Quasar
4 Belluard
5 Backtalk
6 Messing
7 D.T.E.T.
Персоналии:
Christy Doran electric and acoustic guitars
Fredy Studer drums, percussion
Stephan Wittwer electric guitar, synthesizer, sequencer programming
 
отчёт ЕАС
Exact Audio Copy V0.99 prebeta 3 from 28. July 2007
Отчёт EAC об извлечении, выполненном 23. апреля 2008, 14:17
Christy Doran - Fredy Studer - Stephan Wittwer / Red Twist & Tuned Arrow
Дисковод: Optiarc DVD RW AD-7200A Adapter: 1 ID: 0
Режим чтения : Достоверность
Использование точного потока : Да
Отключение кэша аудио : Да
Использование указателей C2 : Нет
Коррекция смещения при чтении : 48
Способность читать области Lead-in и Lead-out : Нет
Заполнение пропущенных сэмплов тишиной : Да
Удаление блоков с тишиной в начале и конце : Нет
При вычислениях CRC использовались нулевые сэмплы : Нет
Интерфейс : Встроенный Win32-интерфейс для Win NT/2000
Выходной формат : Внутренние WAV-операции
Формат сэмплов : 44.100 Гц; 16 бит; стерео
TOC извлечённого CD
Трек | Старт | Длительность | Начальный сектор | Конечный сектор
---------------------------------------------------------------------
1 | 0:00.32 | 7:26.43 | 32 | 33524
2 | 7:27.00 | 5:31.02 | 33525 | 58351
3 | 12:58.02 | 8:38.65 | 58352 | 97266
4 | 21:36.67 | 5:21.43 | 97267 | 121384
5 | 26:58.35 | 3:32.00 | 121385 | 137284
6 | 30:30.35 | 6:47.47 | 137285 | 167856
7 | 37:18.07 | 6:08.73 | 167857 | 195529
Характеристики диапазона извлечения и сообщения об ошибках
Выбранный диапазон
Имя файла C:\Red Twist & Tuned Arrow\Christy Doran - Fredy Studer - Stephan Wittwer - Red Twist & Tuned Arrow.wav
Пиковый уровень 87.8 %
Качество диапазона 99.9 %
CRC копии 63371263
Копирование... OK
Ошибок не произошло
AccurateRip: сводка
Трек 1 нет в базе данных
Трек 2 нет в базе данных
Трек 3 нет в базе данных
Трек 4 нет в базе данных
Трек 5 нет в базе данных
Трек 6 нет в базе данных
Трек 7 нет в базе данных
Ни одного трека нет в базе AccurateRip
Конец отчёта
Recorded November 1986
ECM 1342
Сканы в комплекте.
Приватный:
Нет (DHT включён)
Размер:
244.10 Мб (255,953,589 байт) » файлов: 8
Участники:
0 раздают, 0 качают (0 участников всего)
Внешние участники:
2 раздают, 1 качают (3 участников всего) [ Обновить ]
Есть вопросы - пишите личное сообщение пользователю M0p94ok.
00:40
41
Нет комментариев. Ваш будет первым!