Поиск

(Jazz/Dixieland/Swing) [LP] [24/96] Pete Fountain Day in New Orlean - 1960, FLAC (tracks)

(Jazz/Dixieland/Swing) [LP] [24/96] Pete Fountain Day in New Orlean - 1960, FLAC (tracks)
Треклист:
Pete Fountain Day in New Orlean
Жанр: Jazz/Dixieland/Swing
Год выпуска: 1960
Лейбл: Coral
Страна-производитель: USA
Аудио кодек: FLAC
Тип рипа: tracks
Формат записи: 24/96
Формат раздачи: 24/96
Продолжительность: 19:30 + 20:10
Треклист:
Side One
1. I Got Rhythm
2. Ja-Da
3. China Boy ( Go Sleep )
4. Avalon
5. Shine
Side Two
1. Tiger Rag
2. Don't Be That Way
3. Poor Butterfly
4. Someday Sweetheart
5. 's Wonderful
Источник оцифровки: автором раздачи
Код класса состояния винила: Ex-
Устройство воспроизведения: Электроника Б1-01, Ortofon VMS 20e MKII
Предварительный усилитель: Эстония уп010 improved
АЦП: emu 0404 usb
Программа-оцифровщик: SoundForge v10.0
Обработка: ручное удаление щелчков на 8ом и 9ом трэках
 
Спектр
 
Спектрограмма
 
Уровень записи
 
Сэмпл
любой трэк
 
Доп. информация
:
Легкий открытый звук свингующего кларнета Пета Фоунтайна и его оркестра записанный на концерте в Новом Орлеане 29го октября 1959го года.
Блог Пита Фоунтайна.
 
Техническая информация
Диск отмыт в ультразвуковой мойке. Состояние хорошее но на 8ом и 9ом треках небольшие царапины которые пришлось лечить вручную.
Первая сторона диска записана с родной Ортофоновской иглой но из за странного звука на контрабасе в конце стороны который интерферировал с тарелками она была заменена на новую иглу. И 2я сторона оцифрована новой иглой. Заметных изменения в звуке это не принесло.
Файлы порезаны и сжаты в SoundForge. В трэки добавлены теги и обложка альбома.
 
Dynamic Range Meter analysis results
foobar2000 1.1.9 / Dynamic Range Meter 1.1.1
log date: 2011-11-28 11:50:29
--------------------------------------------------------------------------------
Analyzed: Pete Fountain / Pete Fountain Day in New Orlean
--------------------------------------------------------------------------------
DR Peak RMS Duration Track
--------------------------------------------------------------------------------
DR14 -0.20 dB -17.96 dB 3:44 01-I got rythm
DR13 -0.98 dB -20.77 dB 3:14 02-Ja-Da
DR16 -1.03 dB -22.19 dB 5:41 03-China boy
DR15 -3.16 dB -21.75 dB 3:38 04-Avalon
DR14 -2.20 dB -20.18 dB 3:16 05-Shine
DR13 -0.04 dB -18.06 dB 4:03 06-Tiger rag
DR15 0.00 dB -18.25 dB 3:31 07-Don't be that way
DR12 -4.69 dB -20.45 dB 3:29 08-Poor butterfly
DR13 -2.41 dB -20.22 dB 5:27 09-Someday sweetheart
DR13 -1.13 dB -18.12 dB 3:31 10-'S wonderful
--------------------------------------------------------------------------------
Number of tracks: 10
Official DR value: DR14
Samplerate: 96000 Hz
Channels: 2
Bits per sample: 24
Bitrate: 2639 kbps
Codec: FLAC
================================================================================
01:49
701
Нет комментариев. Ваш будет первым!