Вы используете незарегистрированную версию компонента "Вкладки"!

Поиск

(Jazzcore / Noise Rock / Hardcore Punk / Industrial / Free Jazz) God - Loco - 1991, FLAC (tracks+.cue), lossless

Треклист:
God - Loco
Жанр: Jazzcore / Noise Rock / Hardcore Punk / Industrial / Free Jazz
Год выпуска диска: 1991
Производитель диска: UK, Pathological Records
Аудио кодек: FLAC
Тип рипа: tracks+.cue
Битрейт аудио: lossless
Продолжительность: 00:53:38
Трэклист:
1. Fucked (11:11)
2. Sick Puppy (6:20)
3. I'll See You In Hell (13:08)
4. Surf Locomotive (5:42)
5. Love's An Illness (17:17)
Персоналии:
S Blake: tenor sax.
L Ciccotelli: drums.
D Cochrane: bass.
J Edwards: double bass.
T Hodgkinson: alto sax.
G Jeff: bass.
S Kiehl: drums.
K Martin: tenor sax, vocals.
E Prevost: percussion.
R Smith: guitar.
 
EAC extraction logfile
EAC extraction logfile from 20. February 2007, 19:41 for CD
God / Loco
Used drive : LITE-ON DVD SOHD-16P9S Adapter: 3 ID: 1
Read mode : Secure with NO C2, accurate stream, disable cache
Read offset correction : 6
Overread into Lead-In and Lead-Out : No
Used output format : C:\Program Files\FLAC\flac.exe (User Defined Encoder)
192 kBit/s
Additional command line options : -V -8 -T "artist=%a" -T "title=%t" -T "album=%g" -T "date=%y" -T "tracknumber=%n" -T "genre=%m" %s
Other options :
Fill up missing offset samples with silence : Yes
Delete leading and trailing silent blocks : No
Installed external ASPI interface
Track 1
Filename D:\Ripping\God - Loco\01 - Fucked.wav
Pre-gap length 0:00:02.00
Peak level 100.0 %
Track quality 100.0 %
Test CRC 4332BBC3
Copy CRC 4332BBC3
Copy OK
Track 2
Filename D:\Ripping\God - Loco\02 - Sick Puppy.wav
Pre-gap length 0:00:05.45
Peak level 89.4 %
Track quality 99.9 %
Test CRC 374CC87B
Copy CRC 374CC87B
Copy OK
Track 3
Filename D:\Ripping\God - Loco\03 - I'll See You In Hell.wav
Pre-gap length 0:00:04.17
Peak level 100.0 %
Track quality 99.8 %
Test CRC C0220CC7
Copy CRC C0220CC7
Copy OK
Track 4
Filename D:\Ripping\God - Loco\04 - Surf Locomotive.wav
Peak level 100.0 %
Track quality 99.7 %
Test CRC 4EB2C1B7
Copy CRC 4EB2C1B7
Copy OK
Track 5
Filename D:\Ripping\God - Loco\05 - Love's An Illness.wav
Pre-gap length 0:00:03.58
Peak level 100.0 %
Track quality 99.8 %
Test CRC E1C18AF2
Copy CRC E1C18AF2
Copy OK
No errors occured
End of status report
 
audiochecker
AUDIOCHECKER v2.0 beta (build 457) - by Dester - opdester@freemail.hu
~~~~~~~~~~~~~~~~~~~~~~~~~~~~~~~~~~
-=== DO NOT EDIT THIS FILE! ===-
Path: ...\God - 1991 - Loco
1 -=- God - 01 - Fucked.flac -=- CDDA (100%)
2 -=- God - 02 - Sick Puppy.flac -=- CDDA (100%)
3 -=- God - 03 - I'll See You In Hell.flac -=- CDDA (99%)
4 -=- God - 04 - Surf Locomotive.flac -=- CDDA (100%)
5 -=- God - 05 - Love's An Illness.flac -=- CDDA (99%)
Summary 99,60% CDDA
65427204
 
Info
Группу God часто ставят рядом с проектом Justin'а Broadrick'а Godflesh и даже называют сайд-проектом последней, однако, музыкально они достаточно далеко стоят. Да и Кевин Мартин (насколько я знаком с его творчеством) никогда больше не делал подобного.
Loco — первый полноразмерный диск группы (до этого был выпущен только EP Breach Birth 1990 года). Альбом был записан живьем в церкви Святой Марии.
Conceived in 1987 by saxophonist and prolific experimentalist Kevin Martin with guitarist Shane Rogan, although without a formal line-up until after their 1990 debut EP "Breach Birth." Numerous releases by the congealed nine-piece over the next four years explored dark fusions of punk, industrial, electro, free jazz and ambient dub.
This release was recorded live at St. Mary's Church, and features Justin Broadrick (Godflesh) playing guitar, who then went on to produced the record as well.
Review from http://www.browbeat.com/
Ever sit back and wonder what seemingly disparate bands would sound like if they got together to record an album. If early Black Sabbath joined forces with the Rova Saxophone Quartet, then their devilish prodigy may have been God. Slow heavy rythyms interwoven with frenetic sax lines and the rare gutteral vocal. Never would have guessed by the recording and performance quality that it was recorded live. From what I can tell, none of these songs (except for Fucked) are available elsewhere. The album is produced by Justin Broadrick of Godflesh.
(note: this review calls it a self titled God album. It is actually the Loco live album)
God - Posession - 1992
God - The Anatomy Of Addiction - 1994
Any questions -> support@pro-jazz.com. По всем вопросам пишите -> support@pro-jazz.com
11:20
141
Нет комментариев. Ваш будет первым!