Поиск

(Jazz/Bossa Nova) Luciana Souza - The New Bossa Nova - 2007, APE (image+.cue), lossless

Треклист:
Luciana Souza - The New Bossa Nova
Жанр: Jazz/Bossa Nova
Год выпуска диска: 2007
Производитель диска: USA
Аудио кодек: APE
Тип рипа: image+.cue
Битрейт аудио: lossless
Трэклист:
01. Down To You
02. Never Die Young
03. Here It Is
04. When We Dance
05. Satellite
06. Were You Blind That Day
07. Love Is For Strangers
08. You And The Girl
09. Living Without You
10. I Can Let Go Now
11. God Only Knows
12. Waters Of March
Общее время 56'12"
Доп. информация:
Скачано с сети. Автор не известен.
 
Отчет EAC
Exact Audio Copy V0.99 prebeta 3 from 28. July 2007
Отчёт EAC об извлечении, выполненном 19. августа 2008, 23:30
Luciana Souza / The New Bossa Nova
Дисковод: PHILIPS DVD-RAM SDVD8821 Adapter: 0 ID: 1
Режим чтения : Достоверность
Использование точного потока : Да
Отключение кэша аудио : Да
Использование указателей C2 : Нет
Коррекция смещения при чтении : 6
Способность читать области Lead-in и Lead-out : Нет
Заполнение пропущенных сэмплов тишиной : Да
Удаление блоков с тишиной в начале и конце : Нет
При вычислениях CRC использовались нулевые сэмплы : Нет
Интерфейс : Установленный внешний ASPI-интерфейс
Выходной формат : Внутренние WAV-операции
Формат сэмплов : 44.100 Гц; 16 бит; стерео
TOC извлечённого CD
Трек | Старт | Длительность | Начальный сектор | Конечный сектор
---------------------------------------------------------------------
1 | 0:00.00 | 5:04.14 | 0 | 22813
2 | 5:04.14 | 4:37.27 | 22814 | 43615
3 | 9:41.41 | 5:35.58 | 43616 | 68798
4 | 15:17.24 | 5:17.71 | 68799 | 92644
5 | 20:35.20 | 4:39.10 | 92645 | 113579
6 | 25:14.30 | 5:00.63 | 113580 | 136142
7 | 30:15.18 | 5:27.74 | 136143 | 160741
8 | 35:43.17 | 4:34.73 | 160742 | 181364
9 | 40:18.15 | 3:19.71 | 181365 | 196360
10 | 43:38.11 | 4:02.33 | 196361 | 214543
11 | 47:40.44 | 3:52.47 | 214544 | 231990
12 | 51:33.16 | 4:38.26 | 231991 | 252866
Характеристики диапазона извлечения и сообщения об ошибках
Выбранный диапазон
Имя файла C:\Luciana Souza - The New Bossa Nova.wav
Пиковый уровень 98.8 %
Качество диапазона 99.9 %
CRC копии 8C0C90EF
Копирование... OK
Ошибок не произошло
Конец отчёта
02:19
420
Нет комментариев. Ваш будет первым!