Поиск

(Jazz/Bossa Nova) Bebel Gilberto - Remixed (2 CD) - 2005, FLAC (tracks)

Bebel Gilberto - Remixed (2 CD)
Жанр: Jazz/Bossa Nova
Формат: FLAC (tracks)
Продолжительность: 01:42:09
Release Date: 2005
Label: Universal/Ziriguiboom
Трэклист:
CD 1 - Remixed
Продолжительность: 01:07:00
01. Ceu Distante (DJ Spinna Mix) (4:21)
02. Simplesmente (Tom Middleton Cosmos Mix) (6:06)
03. O Caminho (Guy Sigsworth Mix) (3:04)
04. Aganju (Latin Projekt Mix) (5:25)
05. Winter (Nuspirit Helsinki Reinterpretation) (7:59)
06. Baby (Uptown Safari Jazz Mix By Yam Who?) (6:02)
07. All Around (Telefon Tel Aviv Mix) (4:30)
08. Cada Beijo (Thievery Corporation Mix) (4:20)
09. Jabuticaba (Stuhr Mix) (4:27)
10. Aganju (Spiritual South Sub Rub) (5:35)
11. Next To You (Steve Hilier Version) (4:33)
12. Every Day You've Been Away (Monoaural Mix) (4:09)
13. River Song (Grant Nelson Mix) (6:29)
CD 2 - Remixed (Bonus)
Продолжительность: 00:35:09
01. Aganju (John Beltran Mix) (5:42)
02. Simplesmente (Tom Middleton Balearic Mix) (5:53)
03. Baby (Yam Who? Dub Mix) (5:35)
04. Aganju (Spiritual South Bontempi Repercussion) (5:38)
05. Winter (Nuspirit Helsinki Dub) (6:57)
06. All Around (Bombay Dub Orchestra Mix) (5:24)
 
Отчёт EAC CD 1
Exact Audio Copy V0.99 prebeta 1 from 25. May 2007
Отчёт EAC об извлечении, выполненном 14. сентября 2007, 16:39
Bebel Gilberto / Remixed
Дисковод: _NEC DVD_RW ND-4570A Adapter: 1 ID: 1
Режим чтения : Достоверность
Использование точного потока : Да
Отключение кэша аудио : Да
Использование указателей C2 : Нет
Коррекция смещения при чтении : 48
Способность читать области Lead-in и Lead-out : Нет
Заполнение пропущенных сэмплов тишиной : Да
Удаление блоков с тишиной в начале и конце : Нет
Интерфейс : Установленный внешний ASPI-интерфейс
Обработка зазоров : Не обнаружено, добавлено к предыдущему треку
Выходной формат : Пользовательский кодировщик
Выбранный битрейт : 1024 kBit/s
Качество : Высокий
Добавление ID3-тэга : Да
Утилита сжатия : C:\Program Files\Exact Audio Copy\flac-1.2.0-win\bin\flac.exe
Дополнительные параметры : -8 -V -T "artist=%a" -T "title=%t" -T "album=%g" -T "date=%y" -T "tracknumber=%n" -T "genre=%m" -T "comment=Innochka" %s
TOC извлечённого CD
Трек | Старт | Длительность | Начальный сектор | Конечный сектор
---------------------------------------------------------------------
1 | 0:00.00 | 4:21.11 | 0 | 19585
2 | 4:21.11 | 6:06.34 | 19586 | 47069
3 | 10:27.45 | 3:04.27 | 47070 | 60896
4 | 13:31.72 | 5:25.28 | 60897 | 85299
5 | 18:57.25 | 7:59.28 | 85300 | 121252
6 | 26:56.53 | 6:02.39 | 121253 | 148441
7 | 32:59.17 | 4:30.74 | 148442 | 168765
8 | 37:30.16 | 4:20.33 | 168766 | 188298
9 | 41:50.49 | 4:27.17 | 188299 | 208340
10 | 46:17.66 | 5:35.14 | 208341 | 233479
11 | 51:53.05 | 4:33.06 | 233480 | 253960
12 | 56:26.11 | 4:09.68 | 253961 | 272703
13 | 60:36.04 | 6:29.40 | 272704 | 301918
Трек 1
Имя файла G:\Imidg\Новая папка\+Bebel Gilberto - Remixed\Remixed\01 - Ceu Distante (DJ Spinna Mix).wav
Пиковый уровень 99.8 %
Качество трека 100.0 %
CRC копии 8B9C1144
Копирование... OK
Трек 2
Имя файла G:\Imidg\Новая папка\+Bebel Gilberto - Remixed\Remixed\02 - Simplesmente (Tom Middleton Cosmos Mix).wav
Пиковый уровень 100.0 %
Качество трека 100.0 %
CRC копии 73F2BD50
Копирование... OK
Трек 3
Имя файла G:\Imidg\Новая папка\+Bebel Gilberto - Remixed\Remixed\03 - O Caminho (Guy Sigsworth Mix).wav
Пиковый уровень 100.0 %
Качество трека 100.0 %
CRC копии D6855DE1
Копирование... OK
Трек 4
Имя файла G:\Imidg\Новая папка\+Bebel Gilberto - Remixed\Remixed\04 - Aganju (Latin Projekt Mix).wav
Пиковый уровень 100.0 %
Качество трека 100.0 %
CRC копии 0C70CE5C
Копирование... OK
Трек 5
Имя файла G:\Imidg\Новая папка\+Bebel Gilberto - Remixed\Remixed\05 - Winter (Nuspirit Helsinki Reinterpretation).wav
Пиковый уровень 100.0 %
Качество трека 100.0 %
CRC копии 1DAC80BB
Копирование... OK
Трек 6
Имя файла G:\Imidg\Новая папка\+Bebel Gilberto - Remixed\Remixed\06 - Baby (Uptown Safari Jazz Mix By Yam Who ).wav
Пиковый уровень 93.3 %
Качество трека 100.0 %
CRC копии E21467C3
Копирование... OK
Трек 7
Имя файла G:\Imidg\Новая папка\+Bebel Gilberto - Remixed\Remixed\07 - All Around (Telefon Tel Aviv Mix).wav
Пиковый уровень 100.0 %
Качество трека 99.9 %
CRC копии CEBB3E1C
Копирование... OK
Трек 8
Имя файла G:\Imidg\Новая папка\+Bebel Gilberto - Remixed\Remixed\08 - Cada Beijo (Thievery Corporation Mix).wav
Пиковый уровень 92.6 %
Качество трека 100.0 %
CRC копии 069BE24F
Копирование... OK
Трек 9
Имя файла G:\Imidg\Новая папка\+Bebel Gilberto - Remixed\Remixed\09 - Jabuticaba (Stuhr Mix).wav
Пиковый уровень 99.2 %
Качество трека 100.0 %
CRC копии 27B9DA23
Копирование... OK
Трек 10
Имя файла G:\Imidg\Новая папка\+Bebel Gilberto - Remixed\Remixed\10 - Aganju (Spiritual South Sub Rub).wav
Пиковый уровень 100.0 %
Качество трека 100.0 %
CRC копии AABE2A4F
Копирование... OK
Трек 11
Имя файла G:\Imidg\Новая папка\+Bebel Gilberto - Remixed\Remixed\11 - Next To You (Steve Hilier Version).wav
Пиковый уровень 98.2 %
Качество трека 100.0 %
CRC копии B48D0808
Копирование... OK
Трек 12
Имя файла G:\Imidg\Новая папка\+Bebel Gilberto - Remixed\Remixed\12 - Every Day You've Been Away (Monoaural Mix).wav
Пиковый уровень 100.0 %
Качество трека 100.0 %
CRC копии 536768B8
Копирование... OK
Трек 13
Имя файла G:\Imidg\Новая папка\+Bebel Gilberto - Remixed\Remixed\13 - River Song (Grant Nelson Mix).wav
Пиковый уровень 100.0 %
Качество трека 99.9 %
CRC копии CCC4EF1F
Копирование... OK
Ошибок не произошло
Конец отчёта
 
Отчёт EAC CD 2
Exact Audio Copy V0.99 prebeta 1 from 25. May 2007
Отчёт EAC об извлечении, выполненном 14. сентября 2007, 16:51
Bebel Gilberto / Remixed (Bonus)
Дисковод: _NEC DVD_RW ND-4570A Adapter: 1 ID: 1
Режим чтения : Достоверность
Использование точного потока : Да
Отключение кэша аудио : Да
Использование указателей C2 : Нет
Коррекция смещения при чтении : 48
Способность читать области Lead-in и Lead-out : Нет
Заполнение пропущенных сэмплов тишиной : Да
Удаление блоков с тишиной в начале и конце : Нет
Интерфейс : Установленный внешний ASPI-интерфейс
Обработка зазоров : Не обнаружено, добавлено к предыдущему треку
Выходной формат : Пользовательский кодировщик
Выбранный битрейт : 1024 kBit/s
Качество : Высокий
Добавление ID3-тэга : Да
Утилита сжатия : C:\Program Files\Exact Audio Copy\flac-1.2.0-win\bin\flac.exe
Дополнительные параметры : -8 -V -T "artist=%a" -T "title=%t" -T "album=%g" -T "date=%y" -T "tracknumber=%n" -T "genre=%m" -T "comment=Innochka" %s
TOC извлечённого CD
Трек | Старт | Длительность | Начальный сектор | Конечный сектор
---------------------------------------------------------------------
1 | 0:00.00 | 5:42.20 | 0 | 25669
2 | 5:42.20 | 5:53.52 | 25670 | 52196
3 | 11:35.72 | 5:35.26 | 52197 | 77347
4 | 17:11.23 | 5:38.72 | 77348 | 102769
5 | 22:50.20 | 6:57.03 | 102770 | 134047
6 | 29:47.23 | 5:24.18 | 134048 | 158365
Трек 1
Имя файла G:\Imidg\Новая папка\+Bebel Gilberto - Remixed\Remixed (Bonus)\01 - Aganju (John Beltran Mix).wav
Пиковый уровень 97.9 %
Качество трека 100.0 %
CRC копии A22F8442
Копирование... OK
Трек 2
Имя файла G:\Imidg\Новая папка\+Bebel Gilberto - Remixed\Remixed (Bonus)\02 - Simplesmente (Tom Middleton Balearic Mix).wav
Пиковый уровень 99.8 %
Качество трека 100.0 %
CRC копии 72495229
Копирование... OK
Трек 3
Имя файла G:\Imidg\Новая папка\+Bebel Gilberto - Remixed\Remixed (Bonus)\03 - Baby (Yam Who Dub Mix).wav
Пиковый уровень 100.0 %
Качество трека 99.9 %
CRC копии DDD1EE64
Копирование... OK
Трек 4
Имя файла G:\Imidg\Новая папка\+Bebel Gilberto - Remixed\Remixed (Bonus)\04 - Aganju (Spiritual South Bontempi Repercussion).wav
Пиковый уровень 89.1 %
Качество трека 100.0 %
CRC копии 70334648
Копирование... OK
Трек 5
Имя файла G:\Imidg\Новая папка\+Bebel Gilberto - Remixed\Remixed (Bonus)\05 - Winter (Nuspirit Helsinki Dub).wav
Пиковый уровень 100.0 %
Качество трека 100.0 %
CRC копии C1DAFD76
Копирование... OK
Трек 6
Имя файла G:\Imidg\Новая папка\+Bebel Gilberto - Remixed\Remixed (Bonus)\06 - All Around (Bombay Dub Orchestra Mix).wav
Пиковый уровень 100.0 %
Качество трека 100.0 %
CRC копии 287705E4
Копирование... OK
Ошибок не произошло
Конец отчёта
00:23
415
Нет комментариев. Ваш будет первым!