Поиск

(Jazz/Bop/Bossa Nova/Brazilian Jazz/Latin Jazz/Standards) Charlie Byrd — Byrd Plays Jobim — 2002, FLAC (tracks)

Charlie Byrd
Byrd Plays Jobim
Страна: USA
Жанр: Jazz/Bop/Bossa Nova/Brazilian Jazz/Latin Jazz/Standards
Год выпуска: 2002
Формат: FLAC (tracks)
Продолжительность: 67:21
Трэклист:
1. Favela 5:20
2. Corcovado 7:13
3. Desfinado 6:53
4. How insensitive 5:48
5. Agua de beber 7:49
6. If you never come to me 5:03
7. The girl from Ipanema 4:46
8. Once I loved 5:17
9. So danco samba 4:15
10. Zingaro 4:27
11. Someone to light up my life 4:59
12. Meditation 5:03
Доп. информация:
музыканты:
Charlie Byrd, Maucha Adnet, Joe Byrd,
Bill Douglass, Allen Farnham, Dannis Irwin
and other
Release: Concord, 1982–99 / 2002
 
скрытый текст
Отчёт EAC об извлечении, выполненном 10. октября 2007, 1:46 для диска:
Charlie Byrd / Plays Jobim
Дисковод: TSSTcorpCD/DVDW SH-S182D Adapter: 1 ID: 0
Режим чтения: Достоверный (C2: нет, Точный поток: да, Отключение кэша: да)
Комбинированное смещение чтения/записи: 0
Способность читать области Lead-in и Lead-out : Нет
Выходной формат: Внутренние WAV-операции
44.100 Гц; 16 бит; стерео
Другие параметры:
Заполнение пропущенных сэмплов тишиной : Да
Удаление блоков с тишиной в начале и конце : Нет
Встроенный Win32-интерфейс для Win NT/2000
Трек 1
Имя файла D:\Music\jazz\B\Byrd, Charlie\2002 Plays Jobim\01 - Favela.wav
Пиковый уровень 86.0 %
Качество трека 100.0 %
CRC теста F83983D5
CRC копии F83983D5
Копирование... OK
Трек 2
Имя файла D:\Music\jazz\B\Byrd, Charlie\2002 Plays Jobim\02 - Corcovado.wav
Пиковый уровень 90.4 %
Качество трека 99.9 %
CRC теста BD809948
CRC копии BD809948
Копирование... OK
Трек 3
Имя файла D:\Music\jazz\B\Byrd, Charlie\2002 Plays Jobim\03 - Desafinado.wav
Пиковый уровень 87.2 %
Качество трека 100.0 %
CRC теста 8E971849
CRC копии 8E971849
Копирование... OK
Трек 4
Имя файла D:\Music\jazz\B\Byrd, Charlie\2002 Plays Jobim\04 - How Insensitive.wav
Пиковый уровень 99.7 %
Качество трека 100.0 %
CRC теста A4E87564
CRC копии A4E87564
Копирование... OK
Трек 5
Имя файла D:\Music\jazz\B\Byrd, Charlie\2002 Plays Jobim\05 - Agua De Beber.wav
Пиковый уровень 77.6 %
Качество трека 100.0 %
CRC теста BC0BC12A
CRC копии BC0BC12A
Копирование... OK
Трек 6
Имя файла D:\Music\jazz\B\Byrd, Charlie\2002 Plays Jobim\06 - If You Never Come To Me.wav
Пиковый уровень 80.5 %
Качество трека 100.0 %
CRC теста D460505F
CRC копии D460505F
Копирование... OK
Трек 7
Имя файла D:\Music\jazz\B\Byrd, Charlie\2002 Plays Jobim\07 - The Girl From Ipanema.wav
Пиковый уровень 85.8 %
Качество трека 100.0 %
CRC теста 601B67E5
CRC копии 601B67E5
Копирование... OK
Трек 8
Имя файла D:\Music\jazz\B\Byrd, Charlie\2002 Plays Jobim\08 - Once I Love.wav
Пиковый уровень 65.1 %
Качество трека 99.9 %
CRC теста 04F854CF
CRC копии 04F854CF
Копирование... OK
Трек 9
Имя файла D:\Music\jazz\B\Byrd, Charlie\2002 Plays Jobim\09 - So Danco Samba.wav
Пиковый уровень 72.4 %
Качество трека 100.0 %
CRC теста 28C3C560
CRC копии 28C3C560
Копирование... OK
Трек 10
Имя файла D:\Music\jazz\B\Byrd, Charlie\2002 Plays Jobim\10 - Zingaro.wav
Пиковый уровень 89.1 %
Качество трека 100.0 %
CRC теста DB93B870
CRC копии DB93B870
Копирование... OK
Трек 11
Имя файла D:\Music\jazz\B\Byrd, Charlie\2002 Plays Jobim\11 - Someone To Light Up My Life.wav
Пиковый уровень 77.2 %
Качество трека 100.0 %
CRC теста A3B570CD
CRC копии A3B570CD
Копирование... OK
Трек 12
Имя файла D:\Music\jazz\B\Byrd, Charlie\2002 Plays Jobim\12 - Meditation.wav
Пиковый уровень 96.5 %
Качество трека 100.0 %
CRC теста A4B3963A
CRC копии A4B3963A
Копирование... OK
Ошибок не произошло
Конец отчёта
00:29
349
Нет комментариев. Ваш будет первым!