Поиск

(Jazz/Bop) Richie Cole - Hollywood Madness (feat. Eddie Jefferson, The Manhattan Transfer, Tom Waits) - 1979, FLAC (tracks+.cue) lossless

Треклист:
Richie Cole / Hollywood Madness (feat. Eddie Jefferson, The Manhattan Transfer, Tom Waits)
Жанр: Jazz/Bop
Год издания диска: 1979
Издатель (лейбл): Muse
Аудио кодек: FLAC (*.flac)
Тип рипа: tracks+.cue
Битрейт аудио: lossless
Продолжительность: 37:43
Источник (релизер): Источник - Вата, релизер - Vilens40
Наличие сканов в содержимом раздачи: нет
Треклист:
1. Hooray for Hollywood
2. Hi-Fly
3. Tokyo Rose Sings the Hollywood Blues
4. Relaxin' at Camarillo
5. Malibu Breeze
6. I Love Lucy
7. Waitin' for Waits
8. Hooray for Hollywood (Reprise)
 
Лог создания рипа
X Lossless Decoder version 20100911 (122.0)
XLD extraction logfile from 2010-09-15 15:52:06 -0400
Richie Cole / Hollywood Madness
Used drive : MATSHITA DVD-R UJ-857E (revision ZF1E)
Use cdparanoia mode : YES (CDParanoia III 10.2 engine)
Disable audio cache : OK for the drive with cache less than 2750KB
Make use of C2 pointers : NO
Read offset correction : 102
Max retry count : 100
Gap status : Analyzed, Appended
TOC of the extracted CD
Track | Start | Length | Start sector | End sector
---------------------------------------------------------
1 | 00:00:00 | 04:50:67 | 0 | 21816
2 | 04:50:67 | 06:54:10 | 21817 | 52876
3 | 11:45:02 | 04:53:65 | 52877 | 74916
4 | 16:38:67 | 04:38:70 | 74917 | 95836
5 | 21:17:62 | 06:00:55 | 95837 | 122891
6 | 27:18:42 | 05:12:50 | 122892 | 146341
7 | 32:31:17 | 03:55:20 | 146342 | 163986
8 | 36:26:37 | 01:16:28 | 163987 | 169714
All Tracks
Album gain : -2.17 dB
Peak : 1.000000
Track 01
Filename : /Volumes/MADLIB/01 Richie Cole - Hooray For Hollywood.flac
Pre-gap length : 00:02:00
Track gain : -3.96 dB
Peak : 1.000000
CRC32 hash (test run) : D7EB4029
CRC32 hash : D7EB4029
CRC32 hash (skip zero) : AF2938EC
AccurateRip signature : A547F0B7
->Track not present in AccurateRip database.
Statistics
Read error : 0
Skipped (treated as error) : 0
Edge jitter error (maybe fixed) : 0
Atom jitter error (maybe fixed) : 0
Drift error (maybe fixed) : 0
Dropped bytes error (maybe fixed) : 0
Duplicated bytes error (maybe fixed) : 0
Inconsistency in error sectors : 0
Track 02
Filename : /Volumes/MADLIB/02 Richie Cole - Hi-Fly.flac
Pre-gap length : 00:01:40
Track gain : -1.02 dB
Peak : 1.000000
CRC32 hash (test run) : 78114A65
CRC32 hash : 78114A65
CRC32 hash (skip zero) : 1DE1CC0C
AccurateRip signature : 24318C58
->Track not present in AccurateRip database.
Statistics
Read error : 0
Skipped (treated as error) : 0
Edge jitter error (maybe fixed) : 0
Atom jitter error (maybe fixed) : 0
Drift error (maybe fixed) : 0
Dropped bytes error (maybe fixed) : 0
Duplicated bytes error (maybe fixed) : 0
Inconsistency in error sectors : 0
Track 03
Filename : /Volumes/MADLIB/03 Richie Cole - Tokyo rose Sings The Hollywood Blues.flac
Pre-gap length : 00:01:12
Track gain : -1.13 dB
Peak : 1.000000
CRC32 hash (test run) : 88683D7F
CRC32 hash : 88683D7F
CRC32 hash (skip zero) : 5EB1008E
AccurateRip signature : B248A874
->Track not present in AccurateRip database.
Statistics
Read error : 0
Skipped (treated as error) : 0
Edge jitter error (maybe fixed) : 0
Atom jitter error (maybe fixed) : 0
Drift error (maybe fixed) : 0
Dropped bytes error (maybe fixed) : 0
Duplicated bytes error (maybe fixed) : 0
Inconsistency in error sectors : 0
Track 04
Filename : /Volumes/MADLIB/04 Richie Cole - Relaxin' At Camarillo.flac
Pre-gap length : 00:01:10
Track gain : 0.13 dB
Peak : 0.770935
CRC32 hash (test run) : 296AA34C
CRC32 hash : 296AA34C
CRC32 hash (skip zero) : 826C7060
AccurateRip signature : 34C07BDB
->Track not present in AccurateRip database.
Statistics
Read error : 0
Skipped (treated as error) : 0
Edge jitter error (maybe fixed) : 0
Atom jitter error (maybe fixed) : 0
Drift error (maybe fixed) : 0
Dropped bytes error (maybe fixed) : 0
Duplicated bytes error (maybe fixed) : 0
Inconsistency in error sectors : 0
Track 05
Filename : /Volumes/MADLIB/05 Richie Cole - Malibu Breeze.flac
Pre-gap length : 00:00:55
Track gain : -2.92 dB
Peak : 1.000000
CRC32 hash (test run) : DA05BF8A
CRC32 hash : DA05BF8A
CRC32 hash (skip zero) : CD696E9A
AccurateRip signature : 39EE0BEE
->Track not present in AccurateRip database.
Statistics
Read error : 0
Skipped (treated as error) : 0
Edge jitter error (maybe fixed) : 0
Atom jitter error (maybe fixed) : 0
Drift error (maybe fixed) : 0
Dropped bytes error (maybe fixed) : 0
Duplicated bytes error (maybe fixed) : 0
Inconsistency in error sectors : 0
Track 06
Filename : /Volumes/MADLIB/06 Richie Cole - I Love Lucy.flac
Track gain : -1.92 dB
Peak : 1.000000
CRC32 hash (test run) : 5B539DB8
CRC32 hash : 5B539DB8
CRC32 hash (skip zero) : 7B6464CF
AccurateRip signature : 685DD1C2
->Track not present in AccurateRip database.
Statistics
Read error : 0
Skipped (treated as error) : 0
Edge jitter error (maybe fixed) : 0
Atom jitter error (maybe fixed) : 0
Drift error (maybe fixed) : 0
Dropped bytes error (maybe fixed) : 0
Duplicated bytes error (maybe fixed) : 0
Inconsistency in error sectors : 0
Track 07
Filename : /Volumes/MADLIB/07 Richie Cole - Waitin' For Waits.flac
Pre-gap length : 00:00:60
Track gain : -1.43 dB
Peak : 0.999969
CRC32 hash (test run) : 5D23BB5F
CRC32 hash : 5D23BB5F
CRC32 hash (skip zero) : DCC44D7D
AccurateRip signature : E75DFAC4
->Track not present in AccurateRip database.
Statistics
Read error : 0
Skipped (treated as error) : 0
Edge jitter error (maybe fixed) : 0
Atom jitter error (maybe fixed) : 0
Drift error (maybe fixed) : 0
Dropped bytes error (maybe fixed) : 0
Duplicated bytes error (maybe fixed) : 0
Inconsistency in error sectors : 0
Track 08
Filename : /Volumes/MADLIB/08 Richie Cole - Hooray For Hollywood (Reprise).flac
Track gain : -1.31 dB
Peak : 0.937592
CRC32 hash (test run) : F6E90134
CRC32 hash : F6E90134
CRC32 hash (skip zero) : 850536A6
AccurateRip signature : F7778863
->Track not present in AccurateRip database.
Statistics
Read error : 0
Skipped (treated as error) : 0
Edge jitter error (maybe fixed) : 0
Atom jitter error (maybe fixed) : 0
Drift error (maybe fixed) : 0
Dropped bytes error (maybe fixed) : 0
Duplicated bytes error (maybe fixed) : 0
Inconsistency in error sectors : 0
No errors occurred
End of status report
 
Содержание индексной карты (.CUE)
TITLE "Hollywood Madness"
PERFORMER "Richie Cole"
REM DISCID 6108D608
REM REPLAYGAIN_ALBUM_GAIN -2.17 dB
REM REPLAYGAIN_ALBUM_PEAK 1.000000
FILE "01 Richie Cole - Hooray For Hollywood.wav" WAVE
TRACK 01 AUDIO
TITLE "Hooray For Hollywood"
FLAGS PRE
REM REPLAYGAIN_TRACK_GAIN -3.96 dB
REM REPLAYGAIN_TRACK_PEAK 1.000000
INDEX 01 00:00:00
TRACK 02 AUDIO
TITLE "Hi-Fly"
FLAGS PRE
REM REPLAYGAIN_TRACK_GAIN -1.02 dB
REM REPLAYGAIN_TRACK_PEAK 1.000000
INDEX 00 04:49:27
FILE "02 Richie Cole - Hi-Fly.wav" WAVE
INDEX 01 00:00:00
TRACK 03 AUDIO
TITLE "Tokyo rose Sings The Hollywood Blues"
FLAGS PRE
REM REPLAYGAIN_TRACK_GAIN -1.13 dB
REM REPLAYGAIN_TRACK_PEAK 1.000000
INDEX 00 06:52:73
FILE "03 Richie Cole - Tokyo rose Sings The Hollywood Blues.wav" WAVE
INDEX 01 00:00:00
TRACK 04 AUDIO
TITLE "Relaxin' At Camarillo"
FLAGS PRE
REM REPLAYGAIN_TRACK_GAIN 0.13 dB
REM REPLAYGAIN_TRACK_PEAK 0.770935
INDEX 00 04:52:55
FILE "04 Richie Cole - Relaxin' At Camarillo.wav" WAVE
INDEX 01 00:00:00
TRACK 05 AUDIO
TITLE "Malibu Breeze"
FLAGS PRE
REM REPLAYGAIN_TRACK_GAIN -2.92 dB
REM REPLAYGAIN_TRACK_PEAK 1.000000
INDEX 00 04:38:15
FILE "05 Richie Cole - Malibu Breeze.wav" WAVE
INDEX 01 00:00:00
FILE "06 Richie Cole - I Love Lucy.wav" WAVE
TRACK 06 AUDIO
TITLE "I Love Lucy"
FLAGS PRE
REM REPLAYGAIN_TRACK_GAIN -1.92 dB
REM REPLAYGAIN_TRACK_PEAK 1.000000
INDEX 01 00:00:00
TRACK 07 AUDIO
TITLE "Waitin' For Waits"
FLAGS PRE
REM REPLAYGAIN_TRACK_GAIN -1.43 dB
REM REPLAYGAIN_TRACK_PEAK 0.999969
INDEX 00 05:11:65
FILE "07 Richie Cole - Waitin' For Waits.wav" WAVE
INDEX 01 00:00:00
FILE "08 Richie Cole - Hooray For Hollywood (Reprise).wav" WAVE
TRACK 08 AUDIO
TITLE "Hooray For Hollywood (Reprise)"
FLAGS PRE
REM REPLAYGAIN_TRACK_GAIN -1.31 dB
REM REPLAYGAIN_TRACK_PEAK 0.937592
INDEX 01 00:00:00
 
Лог проверки качества
AUDIOCHECKER v2.0 beta (build 457) - by Dester - opdester@freemail.hu
~~~~~~~~~~~~~~~~~~~~~~~~~~~~~~~~~~
-=== DO NOT EDIT THIS FILE! ===-
Path: ...\Richie Cole - Hollywood Madness (1979)
1 -=- 01 Richie Cole - Hooray For Hollywood.flac -=- CDDA (100%)
2 -=- 02 Richie Cole - Hi-Fly.flac -=- CDDA (99%)
3 -=- 03 Richie Cole - Tokyo rose Sings The Hollywood Blues.flac -=- MPEG (95%)
4 -=- 04 Richie Cole - Relaxin' At Camarillo.flac -=- CDDA (100%)
5 -=- 05 Richie Cole - Malibu Breeze.flac -=- MPEG (95%)
6 -=- 06 Richie Cole - I Love Lucy.flac -=- MPEG (95%)
7 -=- 07 Richie Cole - Waitin' For Waits.flac -=- MPEG (73%)
8 -=- 08 Richie Cole - Hooray For Hollywood (Reprise).flac -=- CDDA (100%)
Summary 55.13% CDDA
104222276
 
Скриншот спектра частот
 
Состав
Richie Cole, sax;
Bruce Foreman, guitar;
Dick Hindman, piano;
Marshall Hawkins, bass;
Les DeMerle, Drums;
Michael Spiro, percussion
Eddie Jefferson, vocal;
The Manhattan Transfer (Hauser, Siegel, Alan Paul and Cheryl Bentyne), vocals;
Tom Waits, spoken words
Приватный:
Нет (DHT включён)
Размер:
240.79 Мб (252,488,463 байт) » файлов: 15
Участники:
0 раздают, 0 качают (0 участников всего)
Внешние участники:
5 раздают, 1 качают (6 участников всего) [ Обновить ]
Есть вопросы - пишите личное сообщение пользователю M0p94ok.
20:51
31
Нет комментариев. Ваш будет первым!