Поиск

(Jazz/Avantgarde/Cuban Music) Marc Ribot y Los Cubanos Postizos (The Prosthetic Cubans) (HDCD) - 1998, FLAC (image+.cue), lossless

(Jazz/Avantgarde/Cuban Music) Marc Ribot y Los Cubanos Postizos (The Prosthetic Cubans) (HDCD) - 1998, FLAC (image+.cue), lossless
Треклист:
Marc Ribot y Los Cubanos Postizos (The Prosthetic Cubans) (HDCD)
Жанр: Jazz/Avantgarde/Cuban Music
Год выпуска диска: 1998
Производитель диска: USA (Atlantic)
Аудио кодек: FLAC
Тип рипа: image+.cue
Битрейт аудио: lossless
Продолжительность: 46:46
Трэклист:
1 Aurora En Pekin 05:31
2 Aqui Como Alla 04:51
3 Como Se Goza En El Barrio 03:29
4 Postizo 04:55
5 No Me Llores Mas 05:39
6 Los Teenagers Bailan Changui 04:49
7 Fiesta En El Solar 05:05
8 La Vida Es Un Sueno 03:30
9 Esclavo Triste 06:06
10 Choserito Plena 02:46
Доп. информация:
 
Отчет ЕАС
Exact Audio Copy V0.99 prebeta 4 from 23. January 2008
Отчёт EAC об извлечении, выполненном 5. января 2009, 21:16
Marc Ribot y Los Cubanos Postizos / The prosthetic Cubans
Дисковод: Optiarc DVD RW AD-7173S Adapter: 2 ID: 0
Режим чтения : Достоверность
Использование точного потока : Да
Отключение кэша аудио : Да
Использование указателей C2 : Нет
Коррекция смещения при чтении : 48
Способность читать области Lead-in и Lead-out : Нет
Заполнение пропущенных сэмплов тишиной : Да
Удаление блоков с тишиной в начале и конце : Нет
При вычислениях CRC использовались нулевые сэмплы : Да
Интерфейс : Установленный внешний ASPI-интерфейс
Выходной формат : Пользовательский кодировщик
Выбранный битрейт : 768 kBit/s
Качество : Высокий
Добавление ID3-тэга : Нет
Утилита сжатия : C:\Program Files\Exact Audio Copy\Flac\flac.exe
Дополнительные параметры : -8 -V %s -o %d
TOC извлечённого CD
Трек | Старт | Длительность | Начальный сектор | Конечный сектор
---------------------------------------------------------------------
1 | 0:00.32 | 5:31.30 | 32 | 24886
2 | 5:31.62 | 4:51.48 | 24887 | 46759
3 | 10:23.35 | 3:29.40 | 46760 | 62474
4 | 13:53.00 | 4:55.45 | 62475 | 84644
5 | 18:48.45 | 5:39.65 | 84645 | 110134
6 | 24:28.35 | 4:49.35 | 110135 | 131844
7 | 29:17.70 | 5:05.40 | 131845 | 154759
8 | 34:23.35 | 3:30.17 | 154760 | 170526
9 | 37:53.52 | 6:06.50 | 170527 | 198026
10 | 44:00.27 | 2:46.50 | 198027 | 210526
Характеристики диапазона извлечения и сообщения об ошибках
Выбранный диапазон
Имя файла G:\My Docs 2\My Music 2\Marc Ribot y Los Cubanos Postizos - The prosthetic Cubans\Marc Ribot y Los Cubanos Postizos - The prosthetic Cubans.wav
Пиковый уровень 97.6 %
Качество диапазона 99.9 %
CRC копии 73C48250
Копирование... OK
Ошибок не произошло
AccurateRip: сводка
Трек 1 точное извлечение (доверие 10) [050FC8A3]
Трек 2 точное извлечение (доверие 11) [3BB86CD2]
Трек 3 точное извлечение (доверие 11) [95C64F87]
Трек 4 точное извлечение (доверие 11) [FB5E0239]
Трек 5 точное извлечение (доверие 11) [78A9E4EF]
Трек 6 точное извлечение (доверие 11) [799BC463]
Трек 7 точное извлечение (доверие 11) [11006FB1]
Трек 8 точное извлечение (доверие 11) [32889BAB]
Трек 9 точное извлечение (доверие 11) [14A2B604]
Трек 10 точное извлечение (доверие 11) [18B9FD90]
Все треки извлечены точно
Конец отчёта
Рип с оригинального диска (Atlantic 83116-2), сканы в комплекте.
Альбом-трибьют кубинскому композитору Арсенио Родригесу.
В записи принял участие Джон Медески.
05:13
364
Нет комментариев. Ваш будет первым!