Поиск

(Jazz, World Music, Fusion) Jean-Marc Padovani - Chants du Monde - 1998, FLAC (tracks+.cue), lossless

(Jazz, World Music, Fusion) Jean-Marc Padovani - Chants du Monde - 1998, FLAC (tracks+.cue), lossless
Треклист:
Jean-Marc Padovani - Chants du Monde
Жанр: Jazz, World Music, Fusion
Год выпуска диска: 1998
Производитель диска: France, Label Hopi
Аудио кодек: FLAC
Тип рипа: tracks+.cue
Битрейт аудио: lossless
Продолжительность: 48:16
Трэклист:
1. La faille - 4.19
2. Noir et Blanc - 3.53
3. Milonga - 6.36
4. Vortex - 5.50
5. Sad Country - 8.26
6. Les trois poles - 3.46
7. Danse de la mer noire - 2.59
8. L'amaryllis - 4.55
9. Vies de villes - 5.19
10. Roland Alfonso - 2.10
Musicians:
Jean-Marc Padovani - saxophones, melodica
Keyvan Chemirani - zarb, percussion
Jacob Maciuca - violin
Alain Bruel - accordeon
LABEL HOPI, 1998
HOP 200022
 
Отчёт EAC
Exact Audio Copy V0.99 prebeta 4 from 23. January 2008
EAC extraction logfile from 30. October 2008, 21:47
Jean-Marc Padovani / Chants du Monde
Used drive : PLEXTOR DVDR PX-760A Adapter: 0 ID: 0
Read mode : Secure
Utilize accurate stream : Yes
Defeat audio cache : Yes
Make use of C2 pointers : No
Read offset correction : 30
Overread into Lead-In and Lead-Out : Yes
Fill up missing offset samples with silence : Yes
Delete leading and trailing silent blocks : No
Null samples used in CRC calculations : Yes
Used interface : Native Win32 interface for Win NT & 2000
Gap handling : Appended to previous track
Used output format : User Defined Encoder
Selected bitrate : 128 kBit/s
Quality : High
Add ID3 tag : No
Command line compressor : C:\Program Files\FLAC\flac.exe
Additional command line options : -8 -V -T "ARTIST=%a" -T "TITLE=%t" -T "ALBUM=%g" -T "DATE=%y" -T "TRACKNUMBER=%n" -T "GENRE=%m" -T "COMMENT=EAC FLAC -8" %s
TOC of the extracted CD
Track | Start | Length | Start sector | End sector
---------------------------------------------------------
1 | 0:00.00 | 4:17.42 | 0 | 19316
2 | 4:17.42 | 3:54.58 | 19317 | 36924
3 | 8:12.25 | 6:37.22 | 36925 | 66721
4 | 14:49.47 | 5:49.73 | 66722 | 92969
5 | 20:39.45 | 8:26.37 | 92970 | 130956
6 | 29:06.07 | 3:45.38 | 130957 | 147869
7 | 32:51.45 | 2:58.07 | 147870 | 161226
8 | 35:49.52 | 4:56.65 | 161227 | 183491
9 | 40:46.42 | 5:20.30 | 183492 | 207521
10 | 46:06.72 | 2:08.68 | 207522 | 217189
Track 1
Filename H:\Jean-Marc Padovani - Chants du Monde (1998) [FLAC]\01 - La faille.wav
Pre-gap length 0:00:02.00
Peak level 97.9 %
Track quality 100.0 %
Test CRC F425D694
Copy CRC F425D694
Track not present in AccurateRip database
Copy OK
Track 2
Filename H:\Jean-Marc Padovani - Chants du Monde (1998) [FLAC]\02 - Noir et Blanc.wav
Peak level 97.9 %
Track quality 99.9 %
Test CRC 9341C709
Copy CRC 9341C709
Track not present in AccurateRip database
Copy OK
Track 3
Filename H:\Jean-Marc Padovani - Chants du Monde (1998) [FLAC]\03 - Milonga.wav
Pre-gap length 0:00:01.45
Peak level 97.9 %
Track quality 100.0 %
Test CRC 27E5B828
Copy CRC 27E5B828
Track not present in AccurateRip database
Copy OK
Track 4
Filename H:\Jean-Marc Padovani - Chants du Monde (1998) [FLAC]\04 - Vortex.wav
Pre-gap length 0:00:02.07
Peak level 97.9 %
Track quality 99.9 %
Test CRC 3A948719
Copy CRC 3A948719
Track not present in AccurateRip database
Copy OK
Track 5
Filename H:\Jean-Marc Padovani - Chants du Monde (1998) [FLAC]\05 - Sad Counrty.wav
Pre-gap length 0:00:01.55
Peak level 97.9 %
Track quality 100.0 %
Test CRC 69893902
Copy CRC 69893902
Track not present in AccurateRip database
Copy OK
Track 6
Filename H:\Jean-Marc Padovani - Chants du Monde (1998) [FLAC]\06 - Les trois poles.wav
Pre-gap length 0:00:02.00
Peak level 97.9 %
Track quality 100.0 %
Test CRC 6A93BB9C
Copy CRC 6A93BB9C
Track not present in AccurateRip database
Copy OK
Track 7
Filename H:\Jean-Marc Padovani - Chants du Monde (1998) [FLAC]\07 - Danse de la mer noire.wav
Pre-gap length 0:00:01.10
Peak level 97.9 %
Track quality 100.0 %
Test CRC 4F85A008
Copy CRC 4F85A008
Track not present in AccurateRip database
Copy OK
Track 8
Filename H:\Jean-Marc Padovani - Chants du Monde (1998) [FLAC]\08 - L'amaryllis.wav
Pre-gap length 0:00:00.45
Peak level 90.7 %
Track quality 99.9 %
Test CRC 704A47BD
Copy CRC 704A47BD
Track not present in AccurateRip database
Copy OK
Track 9
Filename H:\Jean-Marc Padovani - Chants du Monde (1998) [FLAC]\09 - Vies de villes.wav
Pre-gap length 0:00:01.10
Peak level 97.9 %
Track quality 100.0 %
Test CRC A170D9EC
Copy CRC A170D9EC
Track not present in AccurateRip database
Copy OK
Track 10
Filename H:\Jean-Marc Padovani - Chants du Monde (1998) [FLAC]\10 - Roland Alfonso.wav
Pre-gap length 0:00:01.60
Peak level 97.9 %
Track quality 100.0 %
Test CRC 1A639FA8
Copy CRC 1A639FA8
Track not present in AccurateRip database
Copy OK
None of the tracks are present in the AccurateRip database
No errors occurred
End of status report
Рип оригинального диска. Сканы прилагаются.
За релиз спасибо almouse
 
Мои раздачи на трекере
Вокальное и Хоровое искусства (lossless)
Jah Wobble - Requiem
Mozart - Requiem/Реквием (Dr. Stefan Klimo, Zdenek Kosler), Exultate, jubilate (Klaus Donath); Beethoven - Mass C-dur (Anton Nanut)
Оркестровая (lossless)
Joseph Haydn - Wiedenski klasyk - Trumpet Concerto (Alberto Lizzio) / Symphony No. 94 (Alfred Scholz)/ The Quartet No. 62 (Caspar da Salo)
Зарубежный Джаз (lossless)
Earl Howard - Clepton
Elton Dean - Three's Company Two's a Crowd
Glenn Spearman & Dominic Duval - Working With The Elements
Fred Anderson - Staying in the Game
Simon Nabatov, Han Bennink - Chat Room
The Fonda/Stevens Group - Forever Real
Dominic Duval Quintet - Cries and Whispers
George Lewis - Homage to Charles Parker
Marco Benevento - Invisible Baby
Matt Darriau Paradox Trio with Theodosii Spassov - Gambit
Enders Room - Random Guru (Johannes Enders)
Mike Stern - Between the Lines
Jon Eberson - Stash
Sun Ra and His Astro-Infinity Arkestra - Sound Sun Pleasure!!
Kenny Wheeler - Gnu High
Orquesta De Las Nubes - Me Paro Cuando Suena
Orquesta De Las Nubes - El Orden Del Azar
Jazzonia - Little Boy Don't Get Scared
VA - Warsaw Summer Jazz Days 2001 - Nastroj i zgraj zmysly
bILL fRISELL music for the films of bUSTER kEATON Go West
Fred Frith - Speechless
Jonas Hellborg - Adfa (featuring Trilok Gurtu)
Keith Jarrett - Belonging (w. Jan Garbarek)
Jan Garbarek-Bobo Stenson Quartet - Dansere
Jan Garbarek - Places
Shakti with John McLaughlin - Natural Elements (Japan release)
Shakti with John McLaughlin - A Handful of Beauty (Japan release)
Jaco Pastorius - Golden Roads
Mel Lewis and The Jazz Orchestra / Bob Brookmeyer - Live At The Village Vanguard
David Liebman and Richard Beirach - Chant
Louis Sclavis / Dominique Pifarely - Acoustic Quartet
Herbie Hancock - Future 2 Future (Japan bonus track)
Joachim Kühn with Daniel Humair and J. F. Jenny-Clark - Easy to Read
Joachim Kuhn, Mark Nauseef, Tony Newton, Miroslav Tadic - Let's Be Generous
George E. Lewis - Voyager
Christian Muthspiel, Gary Peacock, Wolfgang Muthspiel, Paul Motian
Oregon - Roots in the Sky
Oregon - Winter Light
Nana Vasconcelos, Steve Gorn, Badal Roy, Mike Richmond - Asian Journal
Charles Lloyd / Billy Higgins - Which Way Is East (2 CD)
Jamaaladeen Tacuma - Jukebox
Jamaaladeen Tacuma - Show Stopper
Jamaaladeen Tacuma - Renaissance Man
Edward Vesala Sound & Fury - Nordic Gallery
Original Silence - The Second Original Silence (Mats Gustafsson)
Eartha Kitt - Thinking Jazz
Steven Bernstein - Diaspora Hollywood
Moscow Composers Orchestra - Kings and Cabbages
John Zorn - Filmworks XXIII- el General
Avant-garde, Experimental Metal (lossless)
Praxis - Tennessee 2004
Azonic - Halo (Bill Laswell, Andy Hawkins)
Dub
VA - Axiom Dub: Mysteries of Creation (Bill Laswell)
Indie, Post-Rock & Post-Punk (lossless)
Jah Wobble - The Legend Lives On...Jah Wobbles in ''Betrayal"
Progressive & Art-Rock (lossless)
The Golden Palominos - A Dead Horse
Западноевропейский фолк (lossless)
Lena Willemark & Ale Möller - Nordan
Джаз и Блюз (DVD Video)
Bugge Wesseltoft & Laurent Garnier - Jazz a Vienne
Dave Liebman - Sketches of Spain
Michel Portal - Jazz à Vienne
Джаз и Блюз (Видео)
Louis Sclavis Quintet "Lost On the Way" - Europa Jazz Festival
Арт-хаус и авторское кино (DVD, HD Video)
Коротко и со вкусом II - Ты и я / Kurz und gut II - Du und Ich
Коротко и со вкусом II - Близко и далеко / Kurz und gut II - Nach und fern
Коротко и со вкусом II - Стар и млад / Kurz und Gut II - Jung und Alt
Коротко и со вкусом II - Уйти или остаться / Kurz und gut II - Abhaun oder dableiben
Download available for power users only.
08:57
228
Нет комментариев. Ваш будет первым!