Поиск

(Jazz, World, ECM) Anouar Brahem (8 CD, 1991-2006), FLAC (image+.cue)

(Jazz, World, ECM) Anouar Brahem (8 CD, 1991-2006), FLAC (image+.cue)
Треклист:
Anouar Brahem (8 CD, 1991-2006)
Жанр: Jazz, World, ECM
Аудио кодек: FLAC
Тип рипа: image+.cue
Artwork for all albums
Туниский музыкант Anouar Brahem является, пожалуй, одним из самых примечательных композиторов и исполнителей этнической-джазовой музыки нашего времени. Начав заниматься на уде (разновидность лютни) в 10 лет, к 30-ти годам он уже был назван одним из лучших музыкантов 80-ых, поучаствовав в проектах с Яном Гарбареком, Дейвом Холландом, Шаукатом Хуссейном и многими другими знаменитыми исполнителями как джаза, так и этники. Его музыка -- это погружение в медитативную атмосферу арабской культуры, удивительно в то же время разбавленую джазовыми приёмами и полиритмией. Anouar Brahem, как писали некоторые музыкальные издания, позволил в ином свете взглянуть на уд и те возможности, что предоставляет этнический инструмент виртуозному исполнителю...
Еще альбомы с участием Anouar Brahem (на rutracker.org):
Jan Garbarek, Anouar Brahem, Ustad Shaukat Hussain - Madar (1994)
Orchestre National de Jazz - Charmediterranéen (2002)
Официальный сайт:
http://www.anouarbrahem.com/
Источник: AvaxHome (релизер AneL_GR).
 
1991 - Barzakh
Anouar Brahem
Barzakh
Anouar Brahem oud
Béchir Selmi violin
Lassad Hosni percussion
Raf Raf
Barzakh
Sadir
Ronda
Hou
Sarandib
Souga
Parfum De Gitane
Bou Naouara
Kerkenah
La Nuit Des Yeux
Le Belvédère Assiége
Qaf
Recorded September 1990
ECM 1432
 
Лог EAC
Exact Audio Copy V0.99 prebeta 4 from 23. January 2008
EAC extraction logfile from 6. June 2008, 6:32
Anouar Brahem / Barzakh
Used drive : PIONEER DVD-RW DVR-112D Adapter: 1 ID: 1
Read mode : Secure
Utilize accurate stream : Yes
Defeat audio cache : Yes
Make use of C2 pointers : No
Read offset correction : 48
Overread into Lead-In and Lead-Out : No
Fill up missing offset samples with silence : Yes
Delete leading and trailing silent blocks : No
Null samples used in CRC calculations : Yes
Used interface : Installed external ASPI interface
Used output format : User Defined Encoder
Selected bitrate : 128 kBit/s
Quality : High
Add ID3 tag : Yes
Command line compressor : C:\Program Files\Exact Audio Copy\Flac\flac.exe
Additional command line options : --best -V -T "artist=%a" -T "title=%t" -T "album=%g" -T "date=%y" -T "tracknumber=%n" -T "genre=%m" -T "comment=EAC 0.99pb4(Secure) | OO" %s
TOC of the extracted CD
Track | Start | Length | Start sector | End sector
---------------------------------------------------------
1 | 0:00.33 | 3:37.30 | 33 | 16337
2 | 3:37.63 | 11:05.62 | 16338 | 66274
3 | 14:43.50 | 6:36.25 | 66275 | 95999
4 | 21:20.00 | 3:11.48 | 96000 | 110372
5 | 24:31.48 | 1:37.27 | 110373 | 117674
6 | 26:09.00 | 2:50.43 | 117675 | 130467
7 | 28:59.43 | 2:10.35 | 130468 | 140252
8 | 31:10.03 | 4:17.72 | 140253 | 159599
9 | 35:28.00 | 2:25.53 | 159600 | 170527
10 | 37:53.53 | 7:33.05 | 170528 | 204507
11 | 45:26.58 | 5:32.10 | 204508 | 229417
12 | 50:58.68 | 4:17.02 | 229418 | 248694
13 | 55:15.70 | 1:43.48 | 248695 | 256467
Range status and errors
Selected range
Filename J:\$$$ READY TO BURN\ANOUAR BRAHEM\FLAC\ANOUAR BRAHEM - 1991 - BARZAKH @ FLAC (ECM 1432)\Anouar Brahem - Barzakh.wav
Peak level 91.2 %
Range quality 99.9 %
Copy CRC EA8D915C
Copy OK
No errors occurred
AccurateRip summary
Track 1 accurately ripped (confidence 2) [C786C144]
Track 2 accurately ripped (confidence 2) [7BD887C4]
Track 3 accurately ripped (confidence 2) [84DBF979]
Track 4 accurately ripped (confidence 2) [2077B59B]
Track 5 accurately ripped (confidence 2) [E5945327]
Track 6 accurately ripped (confidence 2) [41690799]
Track 7 accurately ripped (confidence 2) [FE604AC3]
Track 8 accurately ripped (confidence 2) [D95904EA]
Track 9 accurately ripped (confidence 2) [09C63EDC]
Track 10 accurately ripped (confidence 2) [DBB67415]
Track 11 accurately ripped (confidence 2) [1AB41C61]
Track 12 accurately ripped (confidence 2) [3934B67F]
Track 13 accurately ripped (confidence 2) [6881094C]
All tracks accurately ripped
End of status report
 
Лог Audiochecker
AUDIOCHECKER v2.0 beta (build 457) - by Dester - opdester@freemail.hu
~~~~~~~~~~~~~~~~~~~~~~~~~~~~~~~~~~
-=== DO NOT EDIT THIS FILE! ===-
Path: ...\1991 - Barzakh [ECM 1432]
01 -=- Anouar Brahem - Barzakh.flac -=- CDDA (100%)
124986260
 
1992 - Conte de l'incroyable amour
Anouar Brahem
Conte de l'incroyable amour
Anouar Brahem oud
Barbaros Erköse clarinet
Kudsi Erguner nai
Lassad Hosni bendir, darbouka
Etincelles
Le chien sur les genoux de la devineresse
L'oiseau de bois
Lumière du silence
Conte de l'incroyable amour
Peshrev Hidjaz Homayoun
Diversion
Nayzak
Battements
En souvenir d'Iram
Iram retrouvée
Epilogue
Recorded October 1991
ECM 1457
 
Лог EAC
Exact Audio Copy V0.99 prebeta 4 from 23. January 2008
EAC extraction logfile from 6. June 2008, 6:48
Anouar Brahem / Conte de L'incroyable amour
Used drive : PIONEER DVD-RW DVR-112D Adapter: 1 ID: 1
Read mode : Secure
Utilize accurate stream : Yes
Defeat audio cache : Yes
Make use of C2 pointers : No
Read offset correction : 48
Overread into Lead-In and Lead-Out : No
Fill up missing offset samples with silence : Yes
Delete leading and trailing silent blocks : No
Null samples used in CRC calculations : Yes
Used interface : Installed external ASPI interface
Used output format : User Defined Encoder
Selected bitrate : 128 kBit/s
Quality : High
Add ID3 tag : Yes
Command line compressor : C:\Program Files\Exact Audio Copy\Flac\flac.exe
Additional command line options : --best -V -T "artist=%a" -T "title=%t" -T "album=%g" -T "date=%y" -T "tracknumber=%n" -T "genre=%m" -T "comment=EAC 0.99pb4(Secure) | OO" %s
TOC of the extracted CD
Track | Start | Length | Start sector | End sector
---------------------------------------------------------
1 | 0:00.32 | 3:21.63 | 32 | 15169
2 | 3:22.20 | 3:44.17 | 15170 | 31986
3 | 7:06.37 | 4:48.40 | 31987 | 53626
4 | 11:55.02 | 5:15.33 | 53627 | 77284
5 | 17:10.35 | 10:51.12 | 77285 | 126121
6 | 28:01.47 | 5:03.53 | 126122 | 148899
7 | 33:05.25 | 5:39.52 | 148900 | 174376
8 | 38:45.02 | 5:32.55 | 174377 | 199331
9 | 44:17.57 | 1:56.40 | 199332 | 208071
10 | 46:14.22 | 3:02.73 | 208072 | 221794
11 | 49:17.20 | 3:48.37 | 221795 | 238931
12 | 53:05.57 | 6:21.15 | 238932 | 267521
Range status and errors
Selected range
Filename J:\$$$ READY TO BURN\ANOUAR BRAHEM\FLAC\ANOUAR BRAHEM - 1992 - CONTE DE L' INCROYABLE AMOUR @ FLAC (ECM 1457)\Anouar Brahem - Conte de L'incroyable amour.wav
Peak level 100.0 %
Range quality 99.9 %
Copy CRC 9448FE9B
Copy OK
No errors occurred
AccurateRip summary
Track 1 accurately ripped (confidence 3) [64CDAFC3]
Track 2 accurately ripped (confidence 3) [F5469968]
Track 3 accurately ripped (confidence 3) [6E7E3BA3]
Track 4 accurately ripped (confidence 3) [875D5E41]
Track 5 accurately ripped (confidence 3) [59A48539]
Track 6 accurately ripped (confidence 3) [8ED7F3E6]
Track 7 accurately ripped (confidence 3) [DB01F3A0]
Track 8 accurately ripped (confidence 3) [90117EFC]
Track 9 accurately ripped (confidence 3) [A7010CB3]
Track 10 accurately ripped (confidence 3) [28C569AE]
Track 11 accurately ripped (confidence 3) [FCF3139F]
Track 12 accurately ripped (confidence 3) [E7F38AD1]
All tracks accurately ripped
End of status report
 
Лог Audiochecker
AUDIOCHECKER v2.0 beta (build 457) - by Dester - opdester@freemail.hu
~~~~~~~~~~~~~~~~~~~~~~~~~~~~~~~~~~
-=== DO NOT EDIT THIS FILE! ===-
Path: ...\1992 - Conte de l'incroyable amour [ECM 1457]
01 -=- Anouar Brahem - Conte de L'incroyable amour.flac -=- CDDA (100%)
60264228
 
1995 - Khomsa
Anouar Brahem
Khomsa
Anouar Brahem oud
Richard Gálliano accordion
François Couturier piano, synthesizer
Jean Marc Larché soprano saxophone
Béchir Selmi violin
Palle Danielsson double-bass
Jon Christensen drums
Comme un départ
L'infini jour
Souffle un vent de sable
Regard de mouette
Sur l'infini bleu
Claquent les voiles
Vague
E la nave va
AÏn ghazel
Khomsa
Seule
Nouvelle vague
En robe d'olivier
Des rayons et des ombres
Un sentier d'al
Recorded September 1994
ECM 1561
 
Лог EAC
Exact Audio Copy V0.99 prebeta 4 from 23. January 2008
EAC extraction logfile from 6. June 2008, 8:27
Anouar Brahem / Khomsa
Used drive : PIONEER DVD-RW DVR-112D Adapter: 1 ID: 1
Read mode : Secure
Utilize accurate stream : Yes
Defeat audio cache : Yes
Make use of C2 pointers : No
Read offset correction : 48
Overread into Lead-In and Lead-Out : No
Fill up missing offset samples with silence : Yes
Delete leading and trailing silent blocks : No
Null samples used in CRC calculations : Yes
Used interface : Installed external ASPI interface
Used output format : User Defined Encoder
Selected bitrate : 128 kBit/s
Quality : High
Add ID3 tag : Yes
Command line compressor : C:\Program Files\Exact Audio Copy\Flac\flac.exe
Additional command line options : --best -V -T "artist=%a" -T "title=%t" -T "album=%g" -T "date=%y" -T "tracknumber=%n" -T "genre=%m" -T "comment=EAC 0.99pb4(Secure) | OO" %s
TOC of the extracted CD
Track | Start | Length | Start sector | End sector
---------------------------------------------------------
1 | 0:00.32 | 3:36.18 | 32 | 16249
2 | 3:36.50 | 7:32.15 | 16250 | 50164
3 | 11:08.65 | 10:07.55 | 50165 | 95744
4 | 21:16.45 | 1:55.17 | 95745 | 104386
5 | 23:11.62 | 5:53.20 | 104387 | 130881
6 | 29:05.07 | 2:09.65 | 130882 | 140621
7 | 31:14.72 | 2:37.03 | 140622 | 152399
8 | 33:52.00 | 4:41.15 | 152400 | 173489
9 | 38:33.15 | 7:32.17 | 173490 | 207406
10 | 46:05.32 | 7:01.00 | 207407 | 238981
11 | 53:06.32 | 3:39.05 | 238982 | 255411
12 | 56:45.37 | 2:38.58 | 255412 | 267319
13 | 59:24.20 | 2:41.57 | 267320 | 279451
14 | 62:06.02 | 8:32.05 | 279452 | 317856
15 | 70:38.07 | 2:41.25 | 317857 | 329956
16 | 73:19.32 | 3:14.00 | 329957 | 344506
Range status and errors
Selected range
Filename J:\$$$ READY TO BURN\ANOUAR BRAHEM\FLAC\ANOUAR BRAHEM - 1995 - KHOMSA @ FLAC (ECM 1561)\Anouar Brahem - Khomsa.wav
Peak level 95.8 %
Range quality 99.9 %
Copy CRC D403BAC7
Copy OK
No errors occurred
AccurateRip summary
Track 1 not present in database
Track 2 not present in database
Track 3 not present in database
Track 4 not present in database
Track 5 not present in database
Track 6 not present in database
Track 7 not present in database
Track 8 not present in database
Track 9 not present in database
Track 10 not present in database
Track 11 not present in database
Track 12 not present in database
Track 13 not present in database
Track 14 not present in database
Track 15 not present in database
Track 16 not present in database
None of the tracks are present in the AccurateRip database
End of status report
 
Лог Audiochecker
AUDIOCHECKER v2.0 beta (build 457) - by Dester - opdester@freemail.hu
~~~~~~~~~~~~~~~~~~~~~~~~~~~~~~~~~~
-=== DO NOT EDIT THIS FILE! ===-
Path: ...\1995 - Khomsa [ECM 1561]
01 -=- Anouar Brahem - Khomsa.flac -=- CDDA (100%)
236095476
 
1998 - Thimar
Anouar Brahem
John Surman
Dave Holland
Thimar
Anouar Brahem oud
John Surman bass clarinet and soprano saxophone
Dave Holland double-bass
Badhra
Kashf
Houdouth
Talwin
Waqt
Uns
Al Hizam Al Dhahbi
Qurb
Mazad
Kernow
Hulmu Rabia
Recorded March 1997
ECM 1641
 
Лог EAC
Exact Audio Copy V0.99 prebeta 4 from 23. January 2008
EAC extraction logfile from 5. June 2008, 23:13
Anouar Brahem & John Surman & Dave Holland / Thimar
Used drive : PIONEER DVD-RW DVR-112D Adapter: 1 ID: 1
Read mode : Secure
Utilize accurate stream : Yes
Defeat audio cache : Yes
Make use of C2 pointers : No
Read offset correction : 48
Overread into Lead-In and Lead-Out : No
Fill up missing offset samples with silence : Yes
Delete leading and trailing silent blocks : No
Null samples used in CRC calculations : Yes
Used interface : Installed external ASPI interface
Used output format : User Defined Encoder
Selected bitrate : 128 kBit/s
Quality : High
Add ID3 tag : Yes
Command line compressor : C:\Program Files\Exact Audio Copy\Flac\flac.exe
Additional command line options : --best -V -T "artist=%a" -T "title=%t" -T "album=%g" -T "date=%y" -T "tracknumber=%n" -T "genre=%m" -T "comment=EAC 0.99pb4(Secure) | OO" %s
TOC of the extracted CD
Track | Start | Length | Start sector | End sector
---------------------------------------------------------
1 | 0:00.00 | 8:30.15 | 0 | 38264
2 | 8:30.15 | 5:23.00 | 38265 | 62489
3 | 13:53.15 | 5:36.15 | 62490 | 87704
4 | 19:29.30 | 4:18.02 | 87705 | 107056
5 | 23:47.32 | 2:32.48 | 107057 | 118504
6 | 26:20.05 | 4:48.70 | 118505 | 140174
7 | 31:09.00 | 5:40.72 | 140175 | 165746
8 | 36:49.72 | 5:16.10 | 165747 | 189456
9 | 42:06.07 | 5:05.30 | 189457 | 212361
10 | 47:11.37 | 5:10.05 | 212362 | 235616
11 | 52:21.42 | 2:14.33 | 235617 | 245699
Range status and errors
Selected range
Filename J:\$$$ READY TO BURN\ANOUAR BRAHEM\FLAC\Anouar Brahem & John Surman & Dave Holland - Thimar.wav
Peak level 100.0 %
Range quality 99.8 %
Copy CRC A4E08186
Copy OK
No errors occurred
AccurateRip summary
Track 1 accurately ripped (confidence 14) [90AA5345]
Track 2 accurately ripped (confidence 14) [EBAED931]
Track 3 accurately ripped (confidence 14) [532ABB77]
Track 4 accurately ripped (confidence 14) [494C54B3]
Track 5 accurately ripped (confidence 14) [5BBBB4EE]
Track 6 accurately ripped (confidence 14) [E42631AA]
Track 7 accurately ripped (confidence 13) [6D00B306]
Track 8 accurately ripped (confidence 13) [46B973EF]
Track 9 accurately ripped (confidence 13) [9934FBE0]
Track 10 accurately ripped (confidence 13) [E4415F9B]
Track 11 accurately ripped (confidence 11) [0702DE65]
All tracks accurately ripped
End of status report
 
Лог Audiochecker
AUDIOCHECKER v2.0 beta (build 457) - by Dester - opdester@freemail.hu
~~~~~~~~~~~~~~~~~~~~~~~~~~~~~~~~~~
-=== DO NOT EDIT THIS FILE! ===-
Path: ...\1998 - Thimar [ECM 1641]
01 -=- Anouar Brahem & John Surman & Dave Holland - Thimar.flac -=- CDDA (99%)
181914660
 
2000 - Astrakan Café
Anouar Brahem Trio
Astrakan Café
Anouar Brahem oud
Barbaros Erköse clarinet
Lassad Hosni bendir, darbouka
Aube rouge à Grozny
Astrakan Café
The Mozdok's Train
Blue Jewels
Nihawend Lunga
Ashkabad
Halfaouine
Parfum de Gitane
Khotan
Karakoum
Astara
Dar es Salaam
Hija pechref
Astrakan Café
Recorded June 1999
ECM 1718
 
Лог EAC
Exact Audio Copy V0.99 prebeta 4 from 23. January 2008
EAC extraction logfile from 6. June 2008, 13:24
Anouar Brahem Trio / Astrakan Cafe
Used drive : PIONEER DVD-RW DVR-112D Adapter: 1 ID: 1
Read mode : Secure
Utilize accurate stream : Yes
Defeat audio cache : Yes
Make use of C2 pointers : No
Read offset correction : 48
Overread into Lead-In and Lead-Out : No
Fill up missing offset samples with silence : Yes
Delete leading and trailing silent blocks : No
Null samples used in CRC calculations : Yes
Used interface : Installed external ASPI interface
Used output format : User Defined Encoder
Selected bitrate : 128 kBit/s
Quality : High
Add ID3 tag : Yes
Command line compressor : C:\Program Files\Exact Audio Copy\Flac\flac.exe
Additional command line options : --best -V -T "artist=%a" -T "title=%t" -T "album=%g" -T "date=%y" -T "tracknumber=%n" -T "genre=%m" -T "comment=EAC 0.99pb4(Secure) | OO" %s
TOC of the extracted CD
Track | Start | Length | Start sector | End sector
---------------------------------------------------------
1 | 0:00.00 | 4:22.72 | 0 | 19721
2 | 4:22.72 | 3:18.48 | 19722 | 34619
3 | 7:41.45 | 4:46.30 | 34620 | 56099
4 | 12:28.00 | 8:31.25 | 56100 | 94449
5 | 20:59.25 | 3:32.32 | 94450 | 110381
6 | 24:31.57 | 5:38.43 | 110382 | 135774
7 | 30:10.25 | 5:57.52 | 135775 | 162601
8 | 36:08.02 | 7:03.68 | 162602 | 194394
9 | 43:11.70 | 3:31.50 | 194395 | 210269
10 | 46:43.45 | 5:08.00 | 210270 | 233369
11 | 51:51.45 | 10:46.60 | 233370 | 281879
12 | 62:38.30 | 3:47.45 | 281880 | 298949
13 | 66:26.00 | 6:24.45 | 298950 | 327794
14 | 72:50.45 | 4:49.32 | 327795 | 349501
Range status and errors
Selected range
Filename J:\$$$ READY TO BURN\ANOUAR BRAHEM\FLAC\ANOUAR BRAHEM - 2000 - ASTRAKAN CAFE @ FLAC (ECM 1718)\Anouar Brahem Trio - Astrakan Cafe.wav
Peak level 99.8 %
Range quality 99.8 %
Copy CRC A63C433A
Copy OK
No errors occurred
AccurateRip summary
Track 1 accurately ripped (confidence 10) [7030D1F4]
Track 2 accurately ripped (confidence 10) [753C42F9]
Track 3 accurately ripped (confidence 10) [BD1FCD2A]
Track 4 accurately ripped (confidence 10) [C95832D3]
Track 5 accurately ripped (confidence 10) [864D4147]
Track 6 accurately ripped (confidence 10) [EF3002D5]
Track 7 accurately ripped (confidence 10) [AF438F55]
Track 8 accurately ripped (confidence 10) [BBE93662]
Track 9 accurately ripped (confidence 10) [01F01917]
Track 10 accurately ripped (confidence 10) [45821196]
Track 11 accurately ripped (confidence 10) [4A37ABC0]
Track 12 accurately ripped (confidence 10) [53FF0900]
Track 13 accurately ripped (confidence 10) [FF145FC7]
Track 14 accurately ripped (confidence 10) [ED50EB4E]
All tracks accurately ripped
End of status report
 
Лог Audiochecker
AUDIOCHECKER v2.0 beta (build 457) - by Dester - opdester@freemail.hu
~~~~~~~~~~~~~~~~~~~~~~~~~~~~~~~~~~
-=== DO NOT EDIT THIS FILE! ===-
Path: ...\2000 - Astrakan Cafe [ECM 1718]
01 -=- Anouar Brahem Trio - Astrakan Cafe.flac -=- CDDA (100%)
02 -=- Anouar Brahem Trio - Astrakan Cafe.flac -=- CDDA (100%)
Summary 100,00% CDDA
239963956
 
2002 - Le pas du chat noir
Anouar Brahem
Le pas du chat noir
Anouar Brahem oud
François Couturier piano
Jean Louis Matinier accordion
Le pas du chat noir
De tout ton cœur
Leila au pays du carrousel
Pique-nique à Nagpur
C'est ailleurs
Toi qui sait
L'arbre qui voit
Un point bleu
Les ailes du Bourak
Rue du départ
Leila au pays du carrousel, var.
Déjà la nuit
Recorded July 2001
ECM 1792
 
Лог EAC
Exact Audio Copy V0.99 prebeta 4 from 23. January 2008
EAC extraction logfile from 6. June 2008, 13:47
Anouar Brahem / Le pas du chat noir
Used drive : PIONEER DVD-RW DVR-112D Adapter: 1 ID: 1
Read mode : Secure
Utilize accurate stream : Yes
Defeat audio cache : Yes
Make use of C2 pointers : No
Read offset correction : 48
Overread into Lead-In and Lead-Out : No
Fill up missing offset samples with silence : Yes
Delete leading and trailing silent blocks : No
Null samples used in CRC calculations : Yes
Used interface : Installed external ASPI interface
Used output format : User Defined Encoder
Selected bitrate : 128 kBit/s
Quality : High
Add ID3 tag : Yes
Command line compressor : C:\Program Files\Exact Audio Copy\Flac\flac.exe
Additional command line options : --best -V -T "artist=%a" -T "title=%t" -T "album=%g" -T "date=%y" -T "tracknumber=%n" -T "genre=%m" -T "comment=EAC 0.99pb4(Secure) | OO" %s
TOC of the extracted CD
Track | Start | Length | Start sector | End sector
---------------------------------------------------------
1 | 0:00.20 | 8:01.38 | 20 | 36132
2 | 8:01.58 | 7:41.02 | 36133 | 70709
3 | 15:42.60 | 6:37.00 | 70710 | 100484
4 | 22:19.60 | 4:13.58 | 100485 | 119517
5 | 26:33.43 | 8:04.66 | 119518 | 155883
6 | 34:38.34 | 6:03.24 | 155884 | 183132
7 | 40:41.58 | 6:13.14 | 183133 | 211121
8 | 46:54.72 | 1:52.07 | 211122 | 219528
9 | 48:47.04 | 4:54.13 | 219529 | 241591
10 | 53:41.17 | 6:05.35 | 241592 | 269001
11 | 59:46.52 | 5:39.55 | 269002 | 294481
12 | 65:26.32 | 5:10.15 | 294482 | 317746
Range status and errors
Selected range
Filename J:\$$$ READY TO BURN\ANOUAR BRAHEM\FLAC\ANOUAR BRAHEM - 2002 - LE PAS DU CHAT NOIR @ FLAC (ECM 1792)\Anouar Brahem - Le pas du chat noir.wav
Peak level 98.9 %
Range quality 99.8 %
Copy CRC 6E43ADF1
Copy OK
No errors occurred
AccurateRip summary
Track 1 accurately ripped (confidence 5) [EFB5C03B]
Track 2 accurately ripped (confidence 5) [D779C0E4]
Track 3 accurately ripped (confidence 5) [645E6620]
Track 4 accurately ripped (confidence 5) [101C26DE]
Track 5 accurately ripped (confidence 5) [302E125C]
Track 6 accurately ripped (confidence 5) [A066E1AE]
Track 7 accurately ripped (confidence 5) [4DE6595F]
Track 8 accurately ripped (confidence 5) [B4E27B4C]
Track 9 accurately ripped (confidence 5) [A3CB90B1]
Track 10 accurately ripped (confidence 5) [41C58CAE]
Track 11 accurately ripped (confidence 5) [A63A23DC]
Track 12 accurately ripped (confidence 5) [FC4D9C87]
All tracks accurately ripped
End of status report
 
Лог Audiochecker
AUDIOCHECKER v2.0 beta (build 457) - by Dester - opdester@freemail.hu
~~~~~~~~~~~~~~~~~~~~~~~~~~~~~~~~~~
-=== DO NOT EDIT THIS FILE! ===-
Path: ...\2002 - Le pas du chat noir [ECM 1792]
01 -=- Anouar Brahem - Le pas du chat noir.flac -=- CDDA (100%)
136208964
 
2003 - Vague
Anouar Brahem
Vague
Ronda
Parfum De Gitane
Houdouth
Le Chien Sur Les Genoux De La Devineresse
Sebika Écouter
Leila Au Pays Du Caroussel, Variation
Diversion
Comme Une Absence
Nihawend Lunga
Claquent Les Voiles
E La Nave Va
Vague
Bou Naouara
Mazad
Hulmu Rabia
Astrakan Café
La Nuit Des Yeux
(limited edition, only available in France and Belgium)
A selection of the most beautiful melodies of Anouar Brahem.
 
Лог EAC
Exact Audio Copy V0.99 prebeta 4 from 23. January 2008
EAC extraction logfile from 5. June 2008, 23:46
Anouar Brahem / Vague
Used drive : PIONEER DVD-RW DVR-112D Adapter: 1 ID: 1
Read mode : Secure
Utilize accurate stream : Yes
Defeat audio cache : Yes
Make use of C2 pointers : No
Read offset correction : 48
Overread into Lead-In and Lead-Out : No
Fill up missing offset samples with silence : Yes
Delete leading and trailing silent blocks : No
Null samples used in CRC calculations : Yes
Used interface : Installed external ASPI interface
Used output format : User Defined Encoder
Selected bitrate : 128 kBit/s
Quality : High
Add ID3 tag : Yes
Command line compressor : C:\Program Files\Exact Audio Copy\Flac\flac.exe
Additional command line options : --best -V -T "artist=%a" -T "title=%t" -T "album=%g" -T "date=%y" -T "tracknumber=%n" -T "genre=%m" -T "comment=EAC 0.99pb4(Secure) | OO" %s
TOC of the extracted CD
Track | Start | Length | Start sector | End sector
---------------------------------------------------------
1 | 0:00.00 | 3:17.47 | 0 | 14821
2 | 3:17.47 | 4:21.20 | 14822 | 34416
3 | 7:38.67 | 5:38.48 | 34417 | 59814
4 | 13:17.40 | 3:45.27 | 59815 | 76716
5 | 17:02.67 | 5:34.40 | 76717 | 101806
6 | 22:37.32 | 5:41.25 | 101807 | 127406
7 | 28:18.57 | 5:39.05 | 127407 | 152836
8 | 33:57.62 | 3:17.33 | 152837 | 167644
9 | 37:15.20 | 3:34.72 | 167645 | 183766
10 | 40:50.17 | 2:08.45 | 183767 | 193411
11 | 42:58.62 | 4:43.48 | 193412 | 214684
12 | 47:42.35 | 2:39.25 | 214685 | 226634
13 | 50:21.60 | 2:25.52 | 226635 | 237561
14 | 52:47.37 | 5:06.70 | 237562 | 260581
15 | 57:54.32 | 2:19.08 | 260582 | 271014
16 | 60:13.40 | 4:44.42 | 271015 | 292356
17 | 64:58.07 | 5:29.73 | 292357 | 317104
Range status and errors
Selected range
Filename J:\$$$ READY TO BURN\ANOUAR BRAHEM\FLAC\ANOUAR BRAHEM - 2003 - VAGUE @ FLAC\Anouar Brahem - Vague.wav
Peak level 100.0 %
Range quality 99.8 %
Copy CRC 2F53BB71
Copy OK
No errors occurred
AccurateRip summary
Track 1 cannot be verified as accurate (confidence 1) [00A35E1A], AccurateRip returned [2997D23B]
Track 2 cannot be verified as accurate (confidence 1) [A5C49D83], AccurateRip returned [5D075186]
Track 3 cannot be verified as accurate (confidence 1) [E677ED83], AccurateRip returned [182D58F6]
Track 4 cannot be verified as accurate (confidence 1) [FDB1774A], AccurateRip returned [71935FC8]
Track 5 cannot be verified as accurate (confidence 1) [A28564FA], AccurateRip returned [557E1458]
Track 6 cannot be verified as accurate (confidence 1) [B3AE8703], AccurateRip returned [E56B9ED1]
Track 7 cannot be verified as accurate (confidence 1) [41A7E8DF], AccurateRip returned [C22B42B8]
Track 8 cannot be verified as accurate (confidence 1) [E3250291], AccurateRip returned [94E4C1E1]
Track 9 cannot be verified as accurate (confidence 1) [5F633026], AccurateRip returned [F8B4D5B1]
Track 10 cannot be verified as accurate (confidence 1) [56D39D77], AccurateRip returned [8343E357]
Track 11 cannot be verified as accurate (confidence 1) [91F58DCF], AccurateRip returned [8011CBDA]
Track 12 cannot be verified as accurate (confidence 1) [9DA5222A], AccurateRip returned [E50BF8BF]
Track 13 cannot be verified as accurate (confidence 1) [204C3054], AccurateRip returned [87A30138]
Track 14 cannot be verified as accurate (confidence 1) [34DE935A], AccurateRip returned [F0CA05BF]
Track 15 cannot be verified as accurate (confidence 1) [B1A03142], AccurateRip returned [373C3B62]
Track 16 cannot be verified as accurate (confidence 1) [E714F8F0], AccurateRip returned [6E57D043]
Track 17 cannot be verified as accurate (confidence 1) [3D21395F], AccurateRip returned [91642B1F]
No tracks could be verified as accurate
You may have a different pressing from the one(s) in the database
End of status report
 
Лог Audiochecker
AUDIOCHECKER v2.0 beta (build 457) - by Dester - opdester@freemail.hu
~~~~~~~~~~~~~~~~~~~~~~~~~~~~~~~~~~
-=== DO NOT EDIT THIS FILE! ===-
Path: ...\2003 - Vague
01 -=- Anouar Brahem - Vague.flac -=- CDDA (99%)
245428308
 
2006 - Le Voyage de Sahar
Anouar Brahem Trio
Le Voyage de Sahar
Anouar Brahem oud
François Couturier piano
Jean Louis Matinier accordion
Sur le fleuve
Le voyage de Sahar
L'Aube
Vague / E la nave va
Les jardins de Ziryab
Nuba
La chambre
Cordoba
Halfaouine
La chambre var.
Zarabanda
Eté andalous
Vague var.
Recorded February 2005
ECM 1915
 
Лог EAC
Exact Audio Copy V0.99 prebeta 4 from 23. January 2008
EAC extraction logfile from 6. June 2008, 0:10
Anouar Brahem / Le Voyage de Sahar
Used drive : PIONEER DVD-RW DVR-112D Adapter: 1 ID: 1
Read mode : Secure
Utilize accurate stream : Yes
Defeat audio cache : Yes
Make use of C2 pointers : No
Read offset correction : 48
Overread into Lead-In and Lead-Out : No
Fill up missing offset samples with silence : Yes
Delete leading and trailing silent blocks : No
Null samples used in CRC calculations : Yes
Used interface : Installed external ASPI interface
Used output format : User Defined Encoder
Selected bitrate : 128 kBit/s
Quality : High
Add ID3 tag : Yes
Command line compressor : C:\Program Files\Exact Audio Copy\Flac\flac.exe
Additional command line options : --best -V -T "artist=%a" -T "title=%t" -T "album=%g" -T "date=%y" -T "tracknumber=%n" -T "genre=%m" -T "comment=EAC 0.99pb4(Secure) | OO" %s
TOC of the extracted CD
Track | Start | Length | Start sector | End sector
---------------------------------------------------------
1 | 0:00.00 | 6:33.11 | 0 | 29485
2 | 6:33.11 | 6:55.36 | 29486 | 60646
3 | 13:28.47 | 5:48.27 | 60647 | 86773
4 | 19:16.74 | 6:19.19 | 86774 | 115217
5 | 25:36.18 | 4:34.51 | 115218 | 135818
6 | 30:10.69 | 3:12.64 | 135819 | 150282
7 | 33:23.58 | 5:01.20 | 150283 | 172877
8 | 38:25.03 | 5:30.54 | 172878 | 197681
9 | 43:55.57 | 2:06.64 | 197682 | 207195
10 | 46:02.46 | 3:47.73 | 207196 | 224293
11 | 49:50.44 | 4:26.57 | 224294 | 244300
12 | 54:17.26 | 7:05.72 | 244301 | 276247
13 | 61:23.23 | 2:18.71 | 276248 | 286668
Range status and errors
Selected range
Filename J:\$$$ READY TO BURN\ANOUAR BRAHEM\FLAC\ANOUAR BRAHEM - 2006 - LE VOYAGE DE SAHAR @ FLAC (ECM 1915)\Anouar Brahem - Le Voyage de Sahar.wav
Peak level 60.9 %
Range quality 99.8 %
Copy CRC 2533A04C
Copy OK
No errors occurred
AccurateRip summary
Track 1 accurately ripped (confidence 18) [21AC31B1]
Track 2 accurately ripped (confidence 18) [F74004ED]
Track 3 accurately ripped (confidence 18) [2141BC3B]
Track 4 accurately ripped (confidence 19) [7880CD1C]
Track 5 accurately ripped (confidence 18) [A083C1C2]
Track 6 accurately ripped (confidence 17) [CE4F3675]
Track 7 accurately ripped (confidence 18) [85E96C6C]
Track 8 accurately ripped (confidence 18) [119A9266]
Track 9 accurately ripped (confidence 18) [B03FC236]
Track 10 accurately ripped (confidence 18) [1C22E7FA]
Track 11 accurately ripped (confidence 18) [DC37E2CD]
Track 12 accurately ripped (confidence 18) [2DD15461]
Track 13 accurately ripped (confidence 18) [67BA8A79]
All tracks accurately ripped
End of status report
 
Лог Audiochecker
AUDIOCHECKER v2.0 beta (build 457) - by Dester - opdester@freemail.hu
~~~~~~~~~~~~~~~~~~~~~~~~~~~~~~~~~~
-=== DO NOT EDIT THIS FILE! ===-
Path: ...\2006 - Le Voyage de Sahar [ECM 1915]
01 -=- Anouar Brahem - Le Voyage de Sahar.flac -=- CDDA (100%)
134987108
04:37
304
Нет комментариев. Ваш будет первым!