Поиск

(Jazz, Vocal Jazz , Post-Bop) Abbey Lincoln featuring Stan Getz - You Gotta Pay The Band - 1991, FLAC (tracks+.cue), lossless

(Jazz, Vocal Jazz , Post-Bop) Abbey Lincoln featuring Stan Getz - You Gotta Pay The Band - 1991, FLAC (tracks+.cue), lossless
Треклист:
ABBEY LINCOLN featuring Stan Getz - You Gotta Pay The Band
Жанр: Jazz, Vocal Jazz , Post-Bop
Год выпуска диска: 1991
Производитель диска: Россия
Аудио кодек: FLAC
Тип рипа: tracks+.cue
Битрейт аудио: lossless
Продолжительность: 58:25
Трэклист:
1. Bird Alone (8:33)
2. I'm in Love (6:11)
3. You Gotta Pay the Band (4:47)
4. Brother, Can You Spare a Dime? (6:45)
5. You Made Me Funny (3:00)
6. And How I Hoped for Your Love (3:35)
7. When I'm Called Home (5:24)
8. Summer Wishes, Winter Dreams (6:26)
9. Up Jumped Spring (4:35)
10. A Time for Love (8:40)
Доп. информация:
Maxine Roach - Viola
Mark Johnson - Drums
Abbey Lincoln - Vocals
Charlie Haden - Bass
Stan Getz - Sax (Tenor)
Hank Jones - Piano
LOG
 
скрытый текст
Exact Audio Copy V0.99 prebeta 4 from 23. January 2008
Отчёт EAC об извлечении, выполненном 16. сентября 2008, 22:14
Abbey Lincoln / You Gotta Pay The Band
Дисковод: PHILIPS SPD2400L1 Adapter: 0 ID: 1
Режим чтения : Достоверность
Использование точного потока : Да
Отключение кэша аудио : Да
Использование указателей C2 : Нет
Коррекция смещения при чтении : 6
Способность читать области Lead-in и Lead-out : Нет
Заполнение пропущенных сэмплов тишиной : Да
Удаление блоков с тишиной в начале и конце : Нет
При вычислениях CRC использовались нулевые сэмплы : Да
Интерфейс : Установленный внешний ASPI-интерфейс
Обработка зазоров : Добавлено к предыдущему треку
Выходной формат : Пользовательский кодировщик
Выбранный битрейт : 1024 kBit/s
Качество : Высокий
Добавление ID3-тэга : Нет
Утилита сжатия : C:\Program Files\FLAC\flac.exe
Дополнительные параметры : -V -8 -T "artist=%a" -T "title=%t" -T "album=%g" -T "date=%y" -T "tracknumber=%n" -T "genre=%m" %s
TOC извлечённого CD
Трек | Старт | Длительность | Начальный сектор | Конечный сектор
---------------------------------------------------------------------
1 | 0:00.33 | 8:34.22 | 33 | 38604
2 | 8:34.55 | 6:13.68 | 38605 | 66647
3 | 14:48.48 | 4:50.70 | 66648 | 88467
4 | 19:39.43 | 6:51.05 | 88468 | 119297
5 | 26:30.48 | 3:02.47 | 119298 | 132994
6 | 29:33.20 | 3:39.23 | 132995 | 149442
7 | 33:12.43 | 5:27.72 | 149443 | 174039
8 | 38:40.40 | 6:29.63 | 174040 | 203277
9 | 45:10.28 | 4:41.35 | 203278 | 224387
10 | 49:51.63 | 8:39.60 | 224388 | 263372
Трек 1
Имя файла E:\Musica\MY SHARE\Abbey Lincoln\01 - Bird Alone.wav
Длина предзазора 0:00:02.33
Пиковый уровень 100.0 %
Качество трека 100.0 %
CRC теста BED559E0
CRC копии BED559E0
Копирование... OK
Трек 2
Имя файла E:\Musica\MY SHARE\Abbey Lincoln\02 - I'm In Love.wav
Длина предзазора 0:00:01.19
Пиковый уровень 100.0 %
Качество трека 99.9 %
CRC теста 2762B863
CRC копии 2762B863
Копирование... OK
Трек 3
Имя файла E:\Musica\MY SHARE\Abbey Lincoln\03 - You Gotta Pay The Band.wav
Длина предзазора 0:00:02.40
Пиковый уровень 86.5 %
Качество трека 100.0 %
CRC теста E6F23E9C
CRC копии E6F23E9C
Копирование... OK
Трек 4
Имя файла E:\Musica\MY SHARE\Abbey Lincoln\04 - Brother, Can You Spare A Dime .wav
Длина предзазора 0:00:03.61
Пиковый уровень 100.0 %
Качество трека 100.0 %
CRC теста 51C2F7A9
CRC копии 51C2F7A9
Копирование... OK
Трек 5
Имя файла E:\Musica\MY SHARE\Abbey Lincoln\05 - You Made Me Funny.wav
Длина предзазора 0:00:05.53
Пиковый уровень 98.5 %
Качество трека 99.9 %
CRC теста ED915ABF
CRC копии ED915ABF
Копирование... OK
Трек 6
Имя файла E:\Musica\MY SHARE\Abbey Lincoln\06 - And How I Hoped For Your Love.wav
Пиковый уровень 94.7 %
Качество трека 100.0 %
CRC теста 647CF7F3
CRC копии 647CF7F3
Копирование... OK
Трек 7
Имя файла E:\Musica\MY SHARE\Abbey Lincoln\07 - When I'm Called Home.wav
Длина предзазора 0:00:03.19
Пиковый уровень 92.5 %
Качество трека 100.0 %
CRC теста 3374270D
CRC копии 3374270D
Копирование... OK
Трек 8
Имя файла E:\Musica\MY SHARE\Abbey Lincoln\08 - Summer Wishes, Winter Dreams.wav
Длина предзазора 0:00:03.46
Пиковый уровень 100.0 %
Качество трека 99.9 %
CRC теста 87A92788
CRC копии 87A92788
Копирование... OK
Трек 9
Имя файла E:\Musica\MY SHARE\Abbey Lincoln\09 - Up Jumped Spring.wav
Длина предзазора 0:00:03.06
Пиковый уровень 97.8 %
Качество трека 100.0 %
CRC теста 46E2BB41
CRC копии 46E2BB41
Копирование... OK
Трек 10
Имя файла E:\Musica\MY SHARE\Abbey Lincoln\10 - Time For Love.wav
Длина предзазора 0:00:05.59
Пиковый уровень 100.0 %
Качество трека 100.0 %
CRC теста 3AFF7FCA
CRC копии 3AFF7FCA
Копирование... OK
Ошибок не произошло
Конец отчёта
TAU
 
скрытый текст
Ночью не раздаю
По всем вопросам пишите личное сообщение пользователю M0p94ok.
02:31
486
Нет комментариев. Ваш будет первым!