Поиск

(jazz, vocal) [CD] Feyza Erenmemiş - I'm New - 2000 (Yonca Music), FLAC (tracks+.cue), lossless

(jazz, vocal) [CD] Feyza Erenmemiş - I'm New - 2000 (Yonca Music), FLAC (tracks+.cue), lossless
Треклист:


Feyza Erenmemiş - I'm New - 2000 (Yonca Music)

Жанр: jazz, vocal
Носитель: CD
Страна-производитель диска (релиза): Turkey
Год издания оригинала: 2000
Издатель (лейбл): Yonca Music
Номер по каталогу: 9920001-2
Страна исполнителя (группы) : Turkey
Аудио кодек: FLAC (*.flac)
Тип рипа: (tracks + .cue)
Битрейт аудио: lossless
Наличие сканов в содержимом раздачи: full scans
Продолжительность: 50:03
Источник (релизер): REDacted
Трэклист:
1. Dancing in the Dark 03:57
2. Little Girl Blue 05:48
3. Love You Madly 04:04
4. I Will 06:17
5. A Day in the Life of a Fool 04:16
6. Ev'ry Time We Say Goodbye 05:03
7. Don't Play That Song 04:30
8. I'm New 05:03
9. Exactly Like You 02:48
10. The Simple Things That I Love 04:13
11. The Party's Over 03:59
 
Лог создания рипа
Exact Audio Copy V1.1 from 23. June 2015
EAC extraction logfile from 14. July 2016, 5:35
Feyza / I'm New
Used drive : TEAC DVD+-RW DVW28SLC Adapter: 1 ID: 0
Read mode : Secure
Utilize accurate stream : Yes
Defeat audio cache : Yes
Make use of C2 pointers : No
Read offset correction : 48
Overread into Lead-In and Lead-Out : No
Fill up missing offset samples with silence : Yes
Delete leading and trailing silent blocks : No
Null samples used in CRC calculations : Yes
Used interface : Native Win32 interface for Win NT & 2000
Gap handling : Appended to previous track
Used output format : User Defined Encoder
Selected bitrate : 1024 kBit/s
Quality : High
Add ID3 tag : No
Command line compressor : C:\Program Files (x86)\Exact Audio Copy\Flac\flac.exe
Additional command line options : -8 -V -T "ARTIST=%artist%" -T "TITLE=%title%" -T "ALBUM=%albumtitle%" -T "DATE=%year%" -T "TRACKNUMBER=%tracknr%" -T "GENRE=%genre%" -T "PERFORMER=%albuminterpret%" -T "COMPOSER=%composer%" %haslyrics%--tag-from-file=LYRICS="%lyricsfile%"%haslyrics% -T "ALBUMARTIST=%albumartist%" -T "DISCNUMBER=%cdnumber%" -T "TOTALDISCS=%totalcds%" -T "TOTALTRACKS=%numtracks%" -T "COMMENT=%comment%" %source% -o %dest%
TOC of the extracted CD
Track | Start | Length | Start sector | End sector
---------------------------------------------------------
1 | 0:00.00 | 3:57.47 | 0 | 17821
2 | 3:57.47 | 5:48.01 | 17822 | 43922
3 | 9:45.48 | 4:04.27 | 43923 | 62249
4 | 13:50.00 | 6:17.13 | 62250 | 90537
5 | 20:07.13 | 4:16.38 | 90538 | 109775
6 | 24:23.51 | 5:03.40 | 109776 | 132540
7 | 29:27.16 | 4:30.39 | 132541 | 152829
8 | 33:57.55 | 5:03.45 | 152830 | 175599
9 | 39:01.25 | 2:48.27 | 175600 | 188226
10 | 41:49.52 | 4:13.50 | 188227 | 207251
11 | 46:03.27 | 3:59.61 | 207252 | 225237
Track 1
Filename D:\RIPs\Feyza - I'm New (2000) [FLAC]\01 - Dancing in the Dark.wav
Pre-gap length 0:00:02.00
Peak level 96.5 %
Extraction speed 2.5 X
Track quality 100.0 %
Test CRC F57A8F6F
Copy CRC F57A8F6F
Track not present in AccurateRip database
Copy OK
Track 2
Filename D:\RIPs\Feyza - I'm New (2000) [FLAC]\02 - Little Girl Blue.wav
Pre-gap length 0:00:02.00
Peak level 96.5 %
Extraction speed 2.9 X
Track quality 100.0 %
Test CRC D9A9D56F
Copy CRC D9A9D56F
Track not present in AccurateRip database
Copy OK
Track 3
Filename D:\RIPs\Feyza - I'm New (2000) [FLAC]\03 - Love You Madly.wav
Pre-gap length 0:00:02.00
Peak level 96.6 %
Extraction speed 2.8 X
Track quality 99.9 %
Test CRC A8C66112
Copy CRC A8C66112
Track not present in AccurateRip database
Copy OK
Track 4
Filename D:\RIPs\Feyza - I'm New (2000) [FLAC]\04 - I Will.wav
Pre-gap length 0:00:02.00
Peak level 96.5 %
Extraction speed 3.1 X
Track quality 99.9 %
Test CRC 3C2C6371
Copy CRC 3C2C6371
Track not present in AccurateRip database
Copy OK
Track 5
Filename D:\RIPs\Feyza - I'm New (2000) [FLAC]\05 - A Day in the Life of a Fool.wav
Pre-gap length 0:00:02.00
Peak level 96.6 %
Extraction speed 3.5 X
Track quality 100.0 %
Test CRC 31D77F4A
Copy CRC 31D77F4A
Track not present in AccurateRip database
Copy OK
Track 6
Filename D:\RIPs\Feyza - I'm New (2000) [FLAC]\06 - Ev'ry Time We Say Goodbye.wav
Pre-gap length 0:00:02.00
Peak level 96.5 %
Extraction speed 4.2 X
Track quality 100.0 %
Test CRC A52D72B5
Copy CRC A52D72B5
Track not present in AccurateRip database
Copy OK
Track 7
Filename D:\RIPs\Feyza - I'm New (2000) [FLAC]\07 - Don't Play That Song.wav
Pre-gap length 0:00:02.00
Peak level 96.5 %
Extraction speed 4.4 X
Track quality 100.0 %
Test CRC 3A3146FF
Copy CRC 3A3146FF
Track not present in AccurateRip database
Copy OK
Track 8
Filename D:\RIPs\Feyza - I'm New (2000) [FLAC]\08 - I'm New.wav
Pre-gap length 0:00:02.00
Peak level 96.5 %
Extraction speed 4.6 X
Track quality 100.0 %
Test CRC 10D3F896
Copy CRC 10D3F896
Track not present in AccurateRip database
Copy OK
Track 9
Filename D:\RIPs\Feyza - I'm New (2000) [FLAC]\09 - Exactly Like You.wav
Pre-gap length 0:00:02.00
Peak level 96.5 %
Extraction speed 4.4 X
Track quality 100.0 %
Test CRC 7A31BFC3
Copy CRC 7A31BFC3
Track not present in AccurateRip database
Copy OK
Track 10
Filename D:\RIPs\Feyza - I'm New (2000) [FLAC]\10 - The Simple Things That I Love.wav
Pre-gap length 0:00:02.00
Peak level 96.5 %
Extraction speed 4.8 X
Track quality 100.0 %
Test CRC 92B667A2
Copy CRC 92B667A2
Track not present in AccurateRip database
Copy OK
Track 11
Filename D:\RIPs\Feyza - I'm New (2000) [FLAC]\11 - The Party's Over.wav
Pre-gap length 0:00:02.00
Peak level 96.5 %
Extraction speed 4.9 X
Track quality 100.0 %
Test CRC 1169356B
Copy CRC 1169356B
Track not present in AccurateRip database
Copy OK
None of the tracks are present in the AccurateRip database
No errors occurred
End of status report
---- CUETools DB Plugin V2.1.6
[CTDB TOCID: II0svTY9wLv6ttCgnGmXIGMM_iY-] found
Submit result: II0svTY9wLv6ttCgnGmXIGMM_iY- has been confirmed
Track | CTDB Status
1 | (1/1) Accurately ripped
2 | (1/1) Accurately ripped
3 | (1/1) Accurately ripped
4 | (1/1) Accurately ripped
5 | (1/1) Accurately ripped
6 | (1/1) Accurately ripped
7 | (1/1) Accurately ripped
8 | (1/1) Accurately ripped
9 | (1/1) Accurately ripped
10 | (1/1) Accurately ripped
11 | (1/1) Accurately ripped
==== Log checksum 76C0EF3AF2C84D5B6633454317E741F31D6828E1DAC959F831856E22CF095EAE ====
 
Содержание индексной карты (.CUE):
REM DATE 2000
REM DISCID 9B0BBB0B
REM COMMENT "ExactAudioCopy v1.1"
PERFORMER "Feyza"
TITLE "I'm New"
FILE "01 - Dancing in the Dark.wav" WAVE
TRACK 01 AUDIO
TITLE "Dancing in the Dark"
PERFORMER "Feyza"
INDEX 01 00:00:00
TRACK 02 AUDIO
TITLE "Little Girl Blue"
PERFORMER "Feyza"
INDEX 00 03:55:47
FILE "02 - Little Girl Blue.wav" WAVE
INDEX 01 00:00:00
TRACK 03 AUDIO
TITLE "Love You Madly"
PERFORMER "Feyza"
INDEX 00 05:46:01
FILE "03 - Love You Madly.wav" WAVE
INDEX 01 00:00:00
TRACK 04 AUDIO
TITLE "I Will"
PERFORMER "Feyza"
INDEX 00 04:02:27
FILE "04 - I Will.wav" WAVE
INDEX 01 00:00:00
TRACK 05 AUDIO
TITLE "A Day in the Life of a Fool"
PERFORMER "Feyza"
INDEX 00 06:15:13
FILE "05 - A Day in the Life of a Fool.wav" WAVE
INDEX 01 00:00:00
TRACK 06 AUDIO
TITLE "Ev'ry Time We Say Goodbye"
PERFORMER "Feyza"
INDEX 00 04:14:38
FILE "06 - Ev'ry Time We Say Goodbye.wav" WAVE
INDEX 01 00:00:00
TRACK 07 AUDIO
TITLE "Don't Play That Song"
PERFORMER "Feyza"
INDEX 00 05:01:40
FILE "07 - Don't Play That Song.wav" WAVE
INDEX 01 00:00:00
TRACK 08 AUDIO
TITLE "I'm New"
PERFORMER "Feyza"
INDEX 00 04:28:39
FILE "08 - I'm New.wav" WAVE
INDEX 01 00:00:00
TRACK 09 AUDIO
TITLE "Exactly Like You"
PERFORMER "Feyza"
INDEX 00 05:01:45
FILE "09 - Exactly Like You.wav" WAVE
INDEX 01 00:00:00
TRACK 10 AUDIO
TITLE "The Simple Things That I Love"
PERFORMER "Feyza"
INDEX 00 02:46:27
FILE "10 - The Simple Things That I Love.wav" WAVE
INDEX 01 00:00:00
TRACK 11 AUDIO
TITLE "The Party's Over"
PERFORMER "Feyza"
INDEX 00 04:11:50
FILE "11 - The Party's Over.wav" WAVE
INDEX 01 00:00:00
 
Лог проверки качества
-----------------------
DON'T MODIFY THIS FILE
-----------------------
PERFORMER: auCDtect Task Manager, ver. 1.6.0 RC1 build 1.6.0.1
Copyright (c) 2008-2010 y-soft. All rights reserved
http://y-soft.org
ANALYZER: auCDtect: CD records authenticity detector, version 0.8.2
Copyright (c) 2004 Oleg Berngardt. All rights reserved.
Copyright (c) 2004 Alexander Djourik. All rights reserved.
FILE: 11 - The Party's Over.flac
Size: 23389406 Hash: 1403CC90F9087C49E9010CFDA3BFEB62 Accuracy: -m0
Conclusion: CDDA 100%
Signature: CCAA3497C573221ABF08D830FACAC0DC64D0F788
FILE: 10 - The Simple Things That I Love.flac
Size: 24929593 Hash: 5E13823CA758BEBD93F1910AE7C65142 Accuracy: -m0
Conclusion: CDDA 99%
Signature: 52A3C5C79FFE38F037673FFA06C36F51E3823F05
FILE: 09 - Exactly Like You.flac
Size: 16431966 Hash: BEA3427FEF798839E94DF2967E9BBD99 Accuracy: -m0
Conclusion: CDDA 100%
Signature: 9D5798B3042B9CDFE54B5FD0ABF67906A45EE3C8
FILE: 08 - I'm New.flac
Size: 32992314 Hash: 8805CFBDB8069F24AB5F650A77DED862 Accuracy: -m0
Conclusion: CDDA 100%
Signature: E057408E196ABF2B034863D594706A9A9CA557F5
FILE: 07 - Don't Play That Song.flac
Size: 29243734 Hash: 6D0B812CA53BED6A0367A00BA38F6C9B Accuracy: -m0
Conclusion: CDDA 100%
Signature: CDB1C8370288729DC2E00B88F5CC5ADAC9C1154E
FILE: 06 - Ev'ry Time We Say Goodbye.flac
Size: 30038166 Hash: 34F6442F8A13FF85E99ED84D935D8D29 Accuracy: -m0
Conclusion: CDDA 100%
Signature: 6794CA2FC8013B66832A9FECA1B6176E8059C51B
FILE: 05 - A Day in the Life of a Fool.flac
Size: 24538110 Hash: 30C62D317CB70ABBF52D8605F00BEAB5 Accuracy: -m0
Conclusion: CDDA 100%
Signature: DC4E95136543A87E7101413D7CA2D5B1F5B14D2A
FILE: 04 - I Will.flac
Size: 36547287 Hash: 519ED022CCCFFC8746EC5C14CF09BA1D Accuracy: -m0
Conclusion: CDDA 100%
Signature: F5E500492CA22189167DC0D2FCF1B2C2D61BFA26
FILE: 03 - Love You Madly.flac
Size: 27046179 Hash: 83C26EB927F7E7BFA6A62DD8E6BB39CE Accuracy: -m0
Conclusion: CDDA 100%
Signature: 88A1F81AAF1C1FE43B920BAE11B164242ABFEB49
FILE: 02 - Little Girl Blue.flac
Size: 37074717 Hash: FB8C4177F60DAFA178C5300DAC92E92E Accuracy: -m0
Conclusion: CDDA 100%
Signature: 81418DBC47B96A2B06835A5B9186F52C9C2474C6
FILE: 01 - Dancing in the Dark.flac
Size: 20201526 Hash: 3A815BCAE8E22A539BAC27E9454F3EB3 Accuracy: -m0
Conclusion: CDDA 100%
Signature: D2337793FEB2BD723FE80CC06244E6E398ABEB1C
 
Лог CUETools
[CUETools log; Date: 4/10/2018 8:41:18 AM; Version: 2.1.5]
[CTDB TOCID: II0svTY9wLv6ttCgnGmXIGMM_iY-] found.
Track | CTDB Status
1 | (2/2) Accurately ripped
2 | (2/2) Accurately ripped
3 | (2/2) Accurately ripped
4 | (2/2) Accurately ripped
5 | (2/2) Accurately ripped
6 | (2/2) Accurately ripped
7 | (2/2) Accurately ripped
8 | (2/2) Accurately ripped
9 | (2/2) Accurately ripped
10 | (2/2) Accurately ripped
11 | (2/2) Accurately ripped
[AccurateRip ID: 0015742d-00b8fd5d-9b0bbb0b] found.
Track [ CRC | V2 ] Status
01 [0961c864|e76a7280] (0+1/1) Accurately ripped
02 [08604729|6d648f7a] (0+1/1) Accurately ripped
03 [6cc48a93|eaa5d896] (0+1/1) Accurately ripped
04 [b15f6ff5|38f6406b] (0+1/1) Accurately ripped
05 [84eb2ca5|4117906f] (0+1/1) Accurately ripped
06 [1a8c3c7a|d52dfe1e] (0+1/1) Accurately ripped
07 [1181b1f7|04e89c79] (0+1/1) Accurately ripped
08 [16134c87|ebc0fda2] (0+1/1) Accurately ripped
09 [d25ed4c6|02bcc173] (0+1/1) Accurately ripped
10 [53f33b32|fe739e2f] (0+1/1) Accurately ripped
11 [a8b92528|e71e4a95] (0+1/1) Accurately ripped
Track Peak [ CRC32 ] [W/O NULL] [ LOG ]
-- 96.6 [7060691D] [A222128E]
01 96.5 [F57A8F6F] [27566AA3] CRC32
02 96.5 [D9A9D56F] [073AA38E] CRC32
03 96.6 [A8C66112] [888BE6E2] CRC32
04 96.5 [3C2C6371] [5381183A] CRC32
05 96.6 [31D77F4A] [61844140] CRC32
06 96.5 [A52D72B5] [7E410471] CRC32
07 96.5 [3A3146FF] [05F99D74] CRC32
08 96.5 [10D3F896] [C386A742] CRC32
09 96.5 [7A31BFC3] [A948CAC9] CRC32
10 96.5 [92B667A2] [CC4E41C0] CRC32
11 96.5 [1169356B] [75754BA7] CRC32
 
Замер динамического диапазона
foobar2000 1.3.10 / Замер динамического диапазона (DR) 1.1.1
Дата отчёта: 2018-04-10 09:13:56
--------------------------------------------------------------------------------
Анализ: Feyza / I'm New
--------------------------------------------------------------------------------
DR Пики RMS Продолжительность трека
--------------------------------------------------------------------------------
DR8 -0.30 дБ -10.30 дБ 3:58 01-Dancing in the Dark
DR9 -0.30 дБ -11.28 дБ 5:48 02-Little Girl Blue
DR10 -0.30 дБ -12.39 дБ 4:04 03-Love You Madly
DR9 -0.30 дБ -11.99 дБ 6:17 04-I Will
DR9 -0.30 дБ -11.07 дБ 4:17 05-A Day in the Life of a Fool
DR11 -0.30 дБ -14.74 дБ 5:04 06-Ev'ry Time We Say Goodbye
DR9 -0.30 дБ -11.12 дБ 4:31 07-Don't Play That Song
DR10 -0.30 дБ -13.11 дБ 5:04 08-I'm New
DR8 -0.30 дБ -11.40 дБ 2:48 09-Exactly Like You
DR10 -0.30 дБ -12.50 дБ 4:14 10-The Simple Things That I Love
DR11 -0.30 дБ -15.48 дБ 4:00 11-The Party's Over
--------------------------------------------------------------------------------
Количество треков: 11
Реальные значения DR: DR9
Частота: 44100 Гц
Каналов: 2
Разрядность: 16
Битрейт: 780 кбит/с
Кодек: FLAC
================================================================================

 
Back
 
Диск
 
Матрица
 
Состав
Emin Findikoglu, keys
Tuna Otenel, soprano sax (tracks 8,10) alto sax (2,7)
Elvan Araci, trombone (1,11)
Imer Demirer, trumpet (10), fluegelhorn (5,7)
Senova Ulker, alto horn (9)
Hasan Kocamaz, harmonica (3)
Melik Yirmibir, bass
Mehmet Ikiz, drums
Jozi Levi, congas (5,9)

Приватный:
Нет (DHT включён)
Размер:
312.20 Мб (327,362,586 байт) » файлов: 23
Участники:
0 раздают, 0 качают (0 участников всего)
Внешние участники:
3 раздают, 1 качают (4 участников всего) [ Обновить ]
07:06
2
Нет комментариев. Ваш будет первым!