Поиск

(Jazz) Uri Caine - The Othello Syndrome - 2008, FLAC (image+.cue), lossless

(Jazz) Uri Caine - The Othello Syndrome - 2008, FLAC (image+.cue), lossless
Треклист:
Uri Caine - The Othello Syndrome
Жанр: Jazz
Год выпуска диска: 2008
Производитель диска: Germany
Аудио кодек: FLAC
Тип рипа: image+.cue
Битрейт аудио: lossless
Продолжительность: 1:15:31
Ralph Alessi trumpet
Stefano Bassanese electronics
Sadiq Bey voice
Jim Black drums
Uri Caine piano, keyboards
Zach Danziger drums
Joyce Hammann violin
John Hebert acoustic bass
Nguyên Lê guitar
Tim Lefebvre acoustic and electric bass
Josefine Lindstrand vocals
Marco Paolini voice
Julie Patton voice
Bunny Sigler vocals
Brundo Fabrizio Sorba electronics
Chris Speed clarinet
Achille Succi clarinet
Dhafer Youssef vocals
Othello's Victory
Fire Song
Drinking Song
Love Duet with Othello and Desdemona
Introduction to Act II
Iago's Credo
She's the Only One I Love
Iago's Web
Desdemona's Lament
Am I a Fool?
The Lion of Venice
Othello's Confession
The Willow Song / Ave Maria
Murder
The Death of Othello
 
EAC Report
Exact Audio Copy V0.99 prebeta 4 from 23. January 2008
EAC extraction logfile from 22. August 2008, 21:04
Uri Caine / The Othello Syndrome
Used drive : TSSTcorpCD/DVDW SH-S182M Adapter: 2 ID: 0
Read mode : Secure
Utilize accurate stream : Yes
Defeat audio cache : Yes
Make use of C2 pointers : No
Read offset correction : 6
Overread into Lead-In and Lead-Out : No
Fill up missing offset samples with silence : Yes
Delete leading and trailing silent blocks : No
Null samples used in CRC calculations : No
Used interface : Installed external ASPI interface
Used output format : User Defined Encoder
Selected bitrate : 1024 kBit/s
Quality : High
Add ID3 tag : No
Command line compressor : C:\Program Files\Exact Audio Copy\FLAC\FLAC.EXE
Additional command line options : -6 -V -T "ARTIST=%a" -T "TITLE=%t" -T "ALBUM=%g" -T "DATE=%y" -T "TRACKNUMBER=%n" -T "GENRE=%m" -T "COMMENT=%e" %s -o %d
TOC of the extracted CD
Track | Start | Length | Start sector | End sector
---------------------------------------------------------
1 | 0:00.00 | 5:39.27 | 0 | 25451
2 | 5:39.27 | 4:56.20 | 25452 | 47671
3 | 10:35.47 | 4:25.44 | 47672 | 67590
4 | 15:01.16 | 8:32.58 | 67591 | 106048
5 | 23:33.74 | 2:49.62 | 106049 | 118785
6 | 26:23.61 | 4:42.54 | 118786 | 139989
7 | 31:06.40 | 6:02.43 | 139990 | 167182
8 | 37:09.08 | 3:55.44 | 167183 | 184851
9 | 41:04.52 | 4:44.62 | 184852 | 206213
10 | 45:49.39 | 5:18.57 | 206214 | 230120
11 | 51:08.21 | 3:53.02 | 230121 | 247597
12 | 55:01.23 | 3:25.21 | 247598 | 262993
13 | 58:26.44 | 7:41.26 | 262994 | 297594
14 | 66:07.70 | 4:17.50 | 297595 | 316919
15 | 70:25.45 | 5:05.37 | 316920 | 339831
Range status and errors
Selected range
Filename F:\z\Uri Caine - The Othello Syndrome.wav
Peak level 98.8 %
Range quality 100.0 %
Test CRC 100B2582
Copy CRC 100B2582
Copy OK
No errors occurred
AccurateRip summary
Track 1 not present in database
Track 2 not present in database
Track 3 not present in database
Track 4 not present in database
Track 5 not present in database
Track 6 not present in database
Track 7 not present in database
Track 8 not present in database
Track 9 not present in database
Track 10 not present in database
Track 11 not present in database
Track 12 not present in database
Track 13 not present in database
Track 14 not present in database
Track 15 not present in database
None of the tracks are present in the AccurateRip database
End of status report
Приватный:
Нет (DHT включён)
Размер:
431.60 Мб (452,568,546 байт) » файлов: 5
Участники:
0 раздают, 0 качают (0 участников всего)
Внешние участники:
2 раздают, 1 качают (3 участников всего) [ Обновить ]
No seeders - write a personal message to user M0p94ok. Нет сидеров - пишите личное сообщение пользователю M0p94ok.
03:13
56
Нет комментариев. Ваш будет первым!