Вы используете незарегистрированную версию компонента "Вкладки"!

Поиск

(Jazz, Tzadik, Jewish) VA - Great Jewish Music: Marc Bolan - 1998, FLAC (tracks+.cue)

(Jazz, Tzadik, Jewish) VA - Great Jewish Music: Marc Bolan - 1998, FLAC (tracks+.cue)
Треклист:
VA - Great Jewish Music: Marc Bolan
Жанр: Jazz, Tzadik, Jewish
Год выпуска диска: 1998
Аудио кодек: FLAC
Тип рипа: tracks+.cue
Продолжительность: 1:09:14
Трэклист:
1. Arto Lindsay & Marc Ribot: Children of the Revolution (2:41)
2. Rebecca Moore: Telegram Sam (4:27)
3. Kramer: Get It On (3:49)
4. Melvins: Buick MacKane (3:07)
5. Medeski, Martin & Wood: Groove a Little (4:14)
6. Lo Galluccio: Cosmic Dancer (4:47)
7. Fantomas/Mike Patton: Chariot Choogle (1:51)
8. Tall Dwarves: Ride a White Swan (3:06)
9. Chris Cochrane: Rip-Off (3:41)
10. Gary Lucas: Deboraarobed (2:44)
11. Eszter Balint: Mambo Sun (3:52)
12. Vernon Reid: Jeepster (4:34)
13. Danny Cohen: Lunacy's Back (2:45)
14. Elysian Fields: Life's a Gas (4:11)
15. Sean Lennon & Yuka Honda: Would I Be the One (3:37)
16. Cake Like: Love Charm (2:48)
17. Trey Spruance: Scenescof (1:41)
18. Buckethead: 20th Century Boy (7:24)
19. Lloyd Cole: Romany Songs (3:55)
Доп. информация: Утащено из сети (WhatCD)
 
Great Jewish Music - Marc Bolan.log
Exact Audio Copy V0.99 prebeta 4 from 23. January 2008
EAC extraction logfile from 21. December 2008, 17:51
Various Artists / Great Jewish Music: Marc Bolan
Used drive : HL-DT-STDVD-RAM GH22NP20 Adapter: 3 ID: 0
Read mode : Secure
Utilize accurate stream : Yes
Defeat audio cache : Yes
Make use of C2 pointers : No
Read offset correction : 102
Overread into Lead-In and Lead-Out : No
Fill up missing offset samples with silence : Yes
Delete leading and trailing silent blocks : No
Null samples used in CRC calculations : Yes
Used interface : Native Win32 interface for Win NT & 2000
Gap handling : Appended to previous track
Used output format : Internal WAV Routines
Sample format : 44.100 Hz; 16 Bit; Stereo
TOC of the extracted CD
Track | Start | Length | Start sector | End sector
---------------------------------------------------------
1 | 0:00.00 | 2:41.10 | 0 | 12084
2 | 2:41.10 | 4:27.32 | 12085 | 32141
3 | 7:08.42 | 3:49.13 | 32142 | 49329
4 | 10:57.55 | 3:07.00 | 49330 | 63354
5 | 14:04.55 | 4:13.62 | 63355 | 82391
6 | 18:18.42 | 4:47.00 | 82392 | 103916
7 | 23:05.42 | 1:51.10 | 103917 | 112251
8 | 24:56.52 | 3:05.63 | 112252 | 126189
9 | 28:02.40 | 3:40.67 | 126190 | 142756
10 | 31:43.32 | 2:44.05 | 142757 | 155061
11 | 34:27.37 | 3:51.45 | 155062 | 172431
12 | 38:19.07 | 4:33.53 | 172432 | 192959
13 | 42:52.60 | 2:45.07 | 192960 | 205341
14 | 45:37.67 | 4:11.28 | 205342 | 224194
15 | 49:49.20 | 3:36.45 | 224195 | 240439
16 | 53:25.65 | 2:48.17 | 240440 | 253056
17 | 56:14.07 | 1:41.03 | 253057 | 260634
18 | 57:55.10 | 7:24.17 | 260635 | 293951
19 | 65:19.27 | 3:55.28 | 293952 | 311604
Track 1
Filename F:\BitTorrent\Great Jewish Music- Marc Bolan\01 - Arto Lindsay & Marc Ribot - Children of the Revolution.wav
Pre-gap length 0:00:02.00
Peak level 89.2 %
Track quality 100.0 %
Test CRC 70D39759
Copy CRC 70D39759
Accurately ripped (confidence 3) [0EDC9CCB]
Copy OK
Track 2
Filename F:\BitTorrent\Great Jewish Music- Marc Bolan\02 - Rebecca Moore - Telegram Sam.wav
Peak level 95.7 %
Track quality 100.0 %
Test CRC 5A1D376C
Copy CRC 5A1D376C
Accurately ripped (confidence 3) [E6F4C20B]
Copy OK
Track 3
Filename F:\BitTorrent\Great Jewish Music- Marc Bolan\03 - Kramer - Get It On.wav
Peak level 92.4 %
Track quality 100.0 %
Test CRC 02434B91
Copy CRC 02434B91
Accurately ripped (confidence 3) [39C7AEA4]
Copy OK
Track 4
Filename F:\BitTorrent\Great Jewish Music- Marc Bolan\04 - Melvins - Buick MacKane.wav
Peak level 98.8 %
Track quality 100.0 %
Test CRC 901B7528
Copy CRC 901B7528
Accurately ripped (confidence 4) [CD610A54]
Copy OK
Track 5
Filename F:\BitTorrent\Great Jewish Music- Marc Bolan\05 - Medeski, Martin & Wood - Groove a Little.wav
Peak level 97.0 %
Track quality 100.0 %
Test CRC 97188836
Copy CRC 97188836
Accurately ripped (confidence 3) [CAD93E06]
Copy OK
Track 6
Filename F:\BitTorrent\Great Jewish Music- Marc Bolan\06 - Lo Galluccio - Cosmic Dancer.wav
Peak level 89.1 %
Track quality 100.0 %
Test CRC 01EF5604
Copy CRC 01EF5604
Accurately ripped (confidence 3) [31FBA43D]
Copy OK
Track 7
Filename F:\BitTorrent\Great Jewish Music- Marc Bolan\07 - Fantomas & Mike Patton - Chariot Choogle.wav
Peak level 89.2 %
Track quality 100.0 %
Test CRC 58F821E8
Copy CRC 58F821E8
Accurately ripped (confidence 4) [B1CBA767]
Copy OK
Track 8
Filename F:\BitTorrent\Great Jewish Music- Marc Bolan\08 - Tall Dwarves - Ride a White Swan.wav
Peak level 89.1 %
Track quality 100.0 %
Test CRC F045EE81
Copy CRC F045EE81
Accurately ripped (confidence 3) [8995BB17]
Copy OK
Track 9
Filename F:\BitTorrent\Great Jewish Music- Marc Bolan\09 - Chris Cochrane - Rip-Off.wav
Peak level 89.2 %
Track quality 100.0 %
Test CRC 29E87453
Copy CRC 29E87453
Accurately ripped (confidence 3) [CDB097CB]
Copy OK
Track 10
Filename F:\BitTorrent\Great Jewish Music- Marc Bolan\10 - Gary Lucas - Deboraarobed.wav
Peak level 89.1 %
Track quality 100.0 %
Test CRC 368E0DD1
Copy CRC 368E0DD1
Accurately ripped (confidence 3) [405F5B23]
Copy OK
Track 11
Filename F:\BitTorrent\Great Jewish Music- Marc Bolan\11 - Ezster Balint - Mambo Sun.wav
Peak level 94.5 %
Track quality 100.0 %
Test CRC 60F4466B
Copy CRC 60F4466B
Accurately ripped (confidence 3) [5ED08014]
Copy OK
Track 12
Filename F:\BitTorrent\Great Jewish Music- Marc Bolan\12 - Vernon Reid - Jeepster.wav
Peak level 98.8 %
Track quality 100.0 %
Test CRC 6EADD8BE
Copy CRC 6EADD8BE
Accurately ripped (confidence 3) [C218B143]
Copy OK
Track 13
Filename F:\BitTorrent\Great Jewish Music- Marc Bolan\13 - Danny Cohen - Lunacy's Back.wav
Peak level 89.1 %
Track quality 100.0 %
Test CRC 8E32FD9B
Copy CRC 8E32FD9B
Accurately ripped (confidence 3) [BF9F7292]
Copy OK
Track 14
Filename F:\BitTorrent\Great Jewish Music- Marc Bolan\14 - Elysian Fields - Life's a Gas.wav
Peak level 98.8 %
Track quality 99.9 %
Test CRC 7E854247
Copy CRC 7E854247
Accurately ripped (confidence 4) [D48D9C46]
Copy OK
Track 15
Filename F:\BitTorrent\Great Jewish Music- Marc Bolan\15 - Sean Lennon & Yuka Honda - Would I Be the One.wav
Peak level 89.1 %
Track quality 100.0 %
Test CRC 3C58917B
Copy CRC 3C58917B
Accurately ripped (confidence 4) [D69F9937]
Copy OK
Track 16
Filename F:\BitTorrent\Great Jewish Music- Marc Bolan\16 - Cake Like - Love Charm.wav
Peak level 85.9 %
Track quality 100.0 %
Test CRC 19F813C9
Copy CRC 19F813C9
Accurately ripped (confidence 2) [048B57CB]
Copy OK
Track 17
Filename F:\BitTorrent\Great Jewish Music- Marc Bolan\17 - Trey Spruance - Scenescof.wav
Peak level 89.1 %
Track quality 100.0 %
Test CRC 462C2629
Copy CRC 462C2629
Accurately ripped (confidence 3) [FB74F632]
Copy OK
Track 18
Filename F:\BitTorrent\Great Jewish Music- Marc Bolan\18 - Buckethead - 20th Century Boy.wav
Peak level 89.2 %
Track quality 100.0 %
Test CRC B1C660E6
Copy CRC B1C660E6
Accurately ripped (confidence 2) [46DA05B4]
Copy OK
Track 19
Filename F:\BitTorrent\Great Jewish Music- Marc Bolan\19 - Lloyd Cole - Romany Songs.wav
Peak level 89.1 %
Track quality 100.0 %
Test CRC 2194DE6D
Copy CRC 2194DE6D
Accurately ripped (confidence 3) [7FB19BA3]
Copy OK
All tracks accurately ripped
No errors occurred
End of status report
flac -V -8 -P 131072 --delete-input-file *.wav
flac 1.2.1, Copyright (C) 2000,2001,2002,2003,2004,2005,2006,2007 Josh Coalson
flac comes with ABSOLUTELY NO WARRANTY. This is free software, and you are
welcome to redistribute it under certain conditions. Type `flac' for details.
01 - Arto Lindsay & Marc Ribot - Children of the Revolution.wav: Verify OK, wrote 18896106 bytes, ratio=0.665
02 - Rebecca Moore - Telegram Sam.wav: Verify OK, wrote 21801136 bytes, ratio=0.462
03 - Kramer - Get It On.wav: Verify OK, wrote 27225002 bytes, ratio=0.673
04 - Melvins - Buick MacKane.wav: Verify OK, wrote 24238087 bytes, ratio=0.735
05 - Medeski, Martin & Wood - Groove a Little.wav: Verify OK, wrote 25138903 bytes, ratio=0.561
06 - Lo Galluccio - Cosmic Dancer.wav: Verify OK, wrote 22613547 bytes, ratio=0.447
07 - Fantomas & Mike Patton - Chariot Choogle.wav: Verify OK, wrote 12658076 bytes, ratio=0.646
08 - Tall Dwarves - Ride a White Swan.wav: Verify OK, wrote 22441718 bytes, ratio=0.685
09 - Chris Cochrane - Rip-Off.wav: Verify OK, wrote 23852228 bytes, ratio=0.612
10 - Gary Lucas - Deboraarobed.wav: Verify OK, wrote 18191735 bytes, ratio=0.629
11 - Ezster Balint - Mambo Sun.wav: Verify OK, wrote 25309981 bytes, ratio=0.620
12 - Vernon Reid - Jeepster.wav: Verify OK, wrote 30719517 bytes, ratio=0.636
13 - Danny Cohen - Lunacy's Back.wav: Verify OK, wrote 18399276 bytes, ratio=0.632
14 - Elysian Fields - Life's a Gas.wav: Verify OK, wrote 23048846 bytes, ratio=0.520
15 - Sean Lennon & Yuka Honda - Would I Be the One.wav: Verify OK, wrote 25438097 bytes, ratio=0.666
16 - Cake Like - Love Charm.wav: Verify OK, wrote 19952518 bytes, ratio=0.672
17 - Trey Spruance - Scenescof.wav: Verify OK, wrote 11090628 bytes, ratio=0.622
18 - Buckethead - 20th Century Boy.wav: Verify OK, wrote 53673359 bytes, ratio=0.685
19 - Lloyd Cole - Romany Songs.wav: Verify OK, wrote 24642221 bytes, ratio=0.594
Any questions -> support@pro-jazz.com. По всем вопросам пишите -> support@pro-jazz.com
13:07
164
Нет комментариев. Ваш будет первым!