Поиск

(Jazz) Trilok Gurtu & Arkè String Quartet - Arkeology - 2006, FLAC (image+.cue), lossless

(Jazz) Trilok Gurtu & Arkè String Quartet - Arkeology - 2006, FLAC (image+.cue), lossless
Треклист:
Trilok Gurtu & Arkè String Quartet - Arkeology
Жанр: Jazz
Год выпуска диска: 2006
Производитель диска: Italy
Аудио кодек: FLAC
Тип рипа: image+.cue
Битрейт аудио: lossless
Продолжительность: 52:01
Trilok Gurtu tabla, drums, percussion, flute, voice
Arkè String Quartet:
Carlo Cantini violin, dilruba, recorder, calimba
Valentino Corvino violin
Sandro Di Paolo viola
Stafano Dall'Ora double bass, ukulele, eminence bass / aptflex
Balahto
Nanda (to my mother)
Kermansah
Dea
Fes
Taranta Suite
Yoragathupaga
Folded Hands
Skopje
Sveva
 
EAC Report
Exact Audio Copy V0.99 prebeta 4 from 23. January 2008
EAC extraction logfile from 20. August 2008, 22:21
Trilok Gurtu / Arkè String Quartet / Arkeology
Used drive : TSSTcorpCD/DVDW SH-S182M Adapter: 2 ID: 0
Read mode : Secure
Utilize accurate stream : Yes
Defeat audio cache : Yes
Make use of C2 pointers : No
Read offset correction : 6
Overread into Lead-In and Lead-Out : No
Fill up missing offset samples with silence : Yes
Delete leading and trailing silent blocks : No
Null samples used in CRC calculations : No
Used interface : Installed external ASPI interface
Used output format : User Defined Encoder
Selected bitrate : 1024 kBit/s
Quality : High
Add ID3 tag : No
Command line compressor : C:\Program Files\Exact Audio Copy\FLAC\FLAC.EXE
Additional command line options : -6 -V -T "ARTIST=%a" -T "TITLE=%t" -T "ALBUM=%g" -T "DATE=%y" -T "TRACKNUMBER=%n" -T "GENRE=%m" -T "COMMENT=%e" %s -o %d
TOC of the extracted CD
Track | Start | Length | Start sector | End sector
---------------------------------------------------------
1 | 0:00.00 | 4:02.59 | 0 | 18208
2 | 4:02.59 | 3:42.17 | 18209 | 34875
3 | 7:45.01 | 4:21.02 | 34876 | 54452
4 | 12:06.03 | 4:19.54 | 54453 | 73931
5 | 16:25.57 | 6:47.02 | 73932 | 104458
6 | 23:12.59 | 6:39.28 | 104459 | 134411
7 | 29:52.12 | 5:48.15 | 134412 | 160526
8 | 35:40.27 | 7:30.34 | 160527 | 194310
9 | 43:10.61 | 5:33.02 | 194311 | 219287
10 | 48:43.63 | 3:17.25 | 219288 | 234087
Range status and errors
Selected range
Filename F:\z\Trilok Gurtu & Arkè String Quartet - Arkeology.wav
Peak level 99.4 %
Range quality 100.0 %
Copy CRC 482E3E09
Copy OK
No errors occurred
AccurateRip summary
Track 1 not present in database
Track 2 not present in database
Track 3 not present in database
Track 4 not present in database
Track 5 not present in database
Track 6 not present in database
Track 7 not present in database
Track 8 not present in database
Track 9 not present in database
Track 10 not present in database
None of the tracks are present in the AccurateRip database
End of status report
ТОРРЕНТ ПЕРЕЗАЛИТ 24.05.2017, 00:48 МСК по техническим причинам. Содержимое не менялось.
Просьба ко всем ранее скачавшим, присоединяться к раздаче.
02:39
286
Нет комментариев. Ваш будет первым!