Поиск

(Jazz, tango) Quadro Nuevo - Buongiorno Tristezza - 2002, APE (image + .cue), lossless

Треклист:
Quadro Nuevo - Buongiorno Tristezza
Жанр: Jazz, tango
Год выпуска: 2002
Формат: APE (image + .cue)
Битрейт аудио: lossless
Продолжительность: 1:01:08
Трэклист:
1. Vol de Nuit 4:43
2. Flambée Montalbanaise 3:31
3. Buongiorno Tristezza 3:25
4. Valse pour David 5:21
5. Don't watch the Girls 4:08
6. La Ultima 3:48
7. Valse des Sylphides 3:29
8. Caruso 5:09
9. Mia Bella 2:44
10. Un Homme et une Femme 3:52
11. La Vida del Senor Lorenzo 3:07
12. Lost Song 3:37
13. Für mich soll's rote Rosen regnen 2:49
14. La Muneca de Alcazar 3:52
15. Alfonsina y el Mar 4:35
16. Bonjour Juliette 2:53
Доп. информация: Еще одним диском Quadro Nuevo порадовал релизер Sat.
 
Log EAC:
Exact Audio Copy V0.99 prebeta 4 from 23. January 2008
EAC extraction logfile from 15. May 2008, 0:16
Quadro Nuevo / Buongiorno Tristezza
Used drive : PLEXTOR DVDR PX-800A Adapter: 1 ID: 1
Read mode : Secure
Utilize accurate stream : Yes
Defeat audio cache : Yes
Make use of C2 pointers : No
Read offset correction : 48
Overread into Lead-In and Lead-Out : No
Fill up missing offset samples with silence : Yes
Delete leading and trailing silent blocks : No
Null samples used in CRC calculations : Yes
Used interface : Installed external ASPI interface
Used output format : Internal WAV Routines
Sample format : 44.100 Hz; 16 Bit; Stereo
TOC of the extracted CD
Track | Start | Length | Start sector | End sector
---------------------------------------------------------
1 | 0:00.00 | 4:43.15 | 0 | 21239
2 | 4:43.15 | 3:31.65 | 21240 | 37129
3 | 8:15.05 | 3:25.05 | 37130 | 52509
4 | 11:40.10 | 5:21.16 | 52510 | 76600
5 | 17:01.26 | 4:08.69 | 76601 | 95269
6 | 21:10.20 | 3:48.29 | 95270 | 112398
7 | 24:58.49 | 3:29.06 | 112399 | 128079
8 | 28:27.55 | 5:09.23 | 128080 | 151277
9 | 33:37.03 | 2:44.06 | 151278 | 163583
10 | 36:21.09 | 3:52.28 | 163584 | 181011
11 | 40:13.37 | 3:07.05 | 181012 | 195041
12 | 43:20.42 | 3:37.21 | 195042 | 211337
13 | 46:57.63 | 2:49.02 | 211338 | 224014
14 | 49:46.65 | 3:52.65 | 224015 | 241479
15 | 53:39.55 | 4:35.55 | 241480 | 262159
16 | 58:15.35 | 2:53.19 | 262160 | 275153
Range status and errors
Selected range
Filename C:\Quadro Nuevo - Buongiorno Tristezza (p)2002 eac-ape-cue by sat\Quadro Nuevo - Buongiorno Tristezza.wav
Peak level 100.0 %
Range quality 99.9 %
Copy CRC 37BC10D6
Copy OK
No errors occurred
AccurateRip summary
Track 1 accurately ripped (confidence 1) [5325F48A]
Track 2 accurately ripped (confidence 1) [3EB19DED]
Track 3 accurately ripped (confidence 1) [DE163B92]
Track 4 accurately ripped (confidence 1) [1C34AE71]
Track 5 accurately ripped (confidence 1) [5A7EF371]
Track 6 accurately ripped (confidence 1) [9E7E7A97]
Track 7 accurately ripped (confidence 1) [0274DC4B]
Track 8 accurately ripped (confidence 1) [050628CA]
Track 9 accurately ripped (confidence 1) [3045F100]
Track 10 accurately ripped (confidence 1) [3573901C]
Track 11 accurately ripped (confidence 1) [30975120]
Track 12 accurately ripped (confidence 1) [6CD82907]
Track 13 accurately ripped (confidence 1) [94F8D31E]
Track 14 accurately ripped (confidence 1) [C5F6EEC8]
Track 15 accurately ripped (confidence 1) [B8D4FB87]
Track 16 accurately ripped (confidence 1) [ABBDD2BD]
All tracks accurately ripped
End of status report
01:22
241
Нет комментариев. Ваш будет первым!