Поиск

(Jazz: Tango, Modern Creative, Prog-Rock) Salle Gaveau - Alloy - 2007, FLAC (tracks+.cue), lossless

(Jazz: Tango, Modern Creative, Prog-Rock) Salle Gaveau - Alloy - 2007, FLAC (tracks+.cue), lossless
Salle Gaveau - Alloy

Жанр: Jazz: Tango, Modern Creative, Prog-Rock
Год записи диска: 2006
Год выпуска диска: 2007
Лейбл: Maboroshi No Sekai
Аудио кодек: FLAC
Тип рипа: tracks + .cue
Битрейт аудио: lossless
Продолжительность: 00:55:28
Трэклист:
1: Alloy 5:46
2: Parade 4:37
3: Nullset 4:51
4: Seven Steps to "Post Tango" 10:12
5: Tempered Elan 5:52
6: Pointed Red 2:48
7: Calcutta 3:46
8: Arcos 6:33
9: Crater 11:01
 
EAC log
Exact Audio Copy V0.99 prebeta 4 from 23. January 2008
EAC extraction logfile from 10. January 2009, 19:32
Salle Gaveau / Alloy
Used drive : HL-DT-STDVDRAM GSA-T20N Adapter: 0 ID: 0
Read mode : Secure
Utilize accurate stream : Yes
Defeat audio cache : Yes
Make use of C2 pointers : No
Read offset correction : 667
Overread into Lead-In and Lead-Out : No
Fill up missing offset samples with silence : Yes
Delete leading and trailing silent blocks : No
Null samples used in CRC calculations : Yes
Used interface : Native Win32 interface for Win NT & 2000
Gap handling : Not detected, thus appended to previous track
Used output format : Internal WAV Routines
Sample format : 44.100 Hz; 16 Bit; Stereo
TOC of the extracted CD
Track | Start | Length | Start sector | End sector
---------------------------------------------------------
1 | 0:00.00 | 5:45.66 | 0 | 25940
2 | 5:45.66 | 4:37.03 | 25941 | 46718
3 | 10:22.69 | 4:50.74 | 46719 | 68542
4 | 15:13.68 | 10:11.74 | 68543 | 114441
5 | 25:25.67 | 5:51.46 | 114442 | 140812
6 | 31:17.38 | 2:48.04 | 140813 | 153416
7 | 34:05.42 | 3:45.50 | 153417 | 170341
8 | 37:51.17 | 6:36.57 | 170342 | 200098
9 | 44:27.74 | 11:00.51 | 200099 | 249649
Track 1
Filename E:\Alloy\01 Alloy.wav
Peak level 100.0 %
Track quality 100.0 %
Copy CRC F10B344A
Copy OK
Track 2
Filename E:\Alloy\02 Parade.wav
Peak level 100.0 %
Track quality 100.0 %
Copy CRC C85D6B5E
Copy OK
Track 3
Filename E:\Alloy\03 Nullset.wav
Peak level 100.0 %
Track quality 100.0 %
Copy CRC CB78D1AD
Copy OK
Track 4
Filename E:\Alloy\04 Seven Steps to 'Post Tango'.wav
Peak level 100.0 %
Track quality 99.9 %
Copy CRC E1806006
Copy OK
Track 5
Filename E:\Alloy\05 Tempered Elan.wav
Peak level 100.0 %
Track quality 100.0 %
Copy CRC 49F076E4
Copy OK
Track 6
Filename E:\Alloy\06 Pointed Red.wav
Peak level 100.0 %
Track quality 100.0 %
Copy CRC 753C0D4D
Copy OK
Track 7
Filename E:\Alloy\07 Calcutta.wav
Peak level 99.9 %
Track quality 100.0 %
Copy CRC CC594362
Copy OK
Track 8
Filename E:\Alloy\08 Arcos.wav
Peak level 88.5 %
Track quality 100.0 %
Copy CRC 51902344
Copy OK
Track 9
Filename E:\Alloy\09 Crater.wav
Peak level 100.0 %
Track quality 100.0 %
Copy CRC AD3169C4
Copy OK
No errors occurred
End of status report
Доп. информация: Группа Salle Gaveau родилась из японской группы Bondage Fruit созданной гитаристом Natsuki Kido. На их звучание танго сильно повлиял мастер Astor Piazzolla и все исполнители опытны в аргентинском танго. Группа в первые появилась на сцене в 2003 и состояла из Natsuki Kido (гитара), Naoki Kita (скрипка), Yoshiaki Sato (accordéon) и Keisuke Torigoe (контрабас). В октябре 2005 к группе присоеденился Masaki Hayashi (фортепьяно) делая состав полным.
Пока что (январь 2009) группа выпустила только один альбом Alloy, который можно описать как джаз/камерное танго с примесями классической музыки, рока и рок-прогрессив. Альбом интересная визитная карточка для группы. С одной стороны в быстрых произведениях видно мастерсво каждого исполнителя, которое сливается в общее сияние группы. Своими скоростью и проворством исполнители создают камерный прог высшего качества. Каждый вносит в песню хитроумный узор, переплёт которых создаёт местами впечатление барокко, а иногда даже ожесточения и можно только удивлятся как эта ожесточенность переливается обратно в элегантность с которой всё началось. Но кажется что исполнители не могут устоять перед искушением попробывать вытянуть из мелодии что нибудь чего у них не получилось до этого и всё начинается с начала. С другой стороны умеренность и спокойствие Nullset и Arcos делают из записи по настоящему полное прозведение. Мастерство уступает место таланту, неoбузданная импровизация расслабленной здержанности. Можно действительно представить что Arcos играет маленький оркестр в полутёмном зале танго. Ну и без юмора песни Calcutta это может быть бы не был альбом который стоило бы прослушать всем любителям музыки танго, современного джаза а так же всем любителям рок-прогрессив.
Исполнители:
Masaki Hayashi (piano)
Natsuki Kido (guitar)
Naoki Kita (violin)
Yoshiaki Sato (accordeon)
Keisuke Torigoe (double bass)
P.S. Нету сканера поэтому торрент почти без обложек. Буду благодарен если поможете найти.Торрент перезалит 14/01/09. Добавлен файл .cue
05:18
331
Нет комментариев. Ваш будет первым!