Поиск

(Jazz,Swing) Ruby Braff ''I Hear Music'' - 2000, FLAC (image+.cue), lossless

(Jazz,Swing) Ruby Braff ''I Hear Music'' - 2000, FLAC (image+.cue), lossless
Треклист:
Ruby Braff ''I Hear Music''
Жанр: Jazz,Swing
Год выпуска диска: 2000
Производитель диска: неизвестно
Аудио кодек: FLAC
Тип рипа: image+.cue
Битрейт аудио: lossless
Продолжительность: 61мин.
Трэклист:
1.I Hear Music
2.Chicago Medley:Chicago My Kind OF Town
3.Baby,Won't You Please Come Home
4.Wouldn't It Be Loverly?
5.Yesterdays
6.Anything For You
7.We're All Through
 
ЕАС
Exact Audio Copy V0.99 prebeta 4 from 23. January 2008
Отчёт EAC об извлечении, выполненном 19. июля 2009, 23:38
- / -
Дисковод: TSSTcorpCDDVDW SN-S082H Adapter: 3 ID: 1
Режим чтения : Достоверность
Использование точного потока : Да
Отключение кэша аудио : Да
Использование указателей C2 : Нет
Коррекция смещения при чтении : 6
Способность читать области Lead-in и Lead-out : Нет
Заполнение пропущенных сэмплов тишиной : Да
Удаление блоков с тишиной в начале и конце : Нет
При вычислениях CRC использовались нулевые сэмплы : Да
Интерфейс : Установленный внешний ASPI-интерфейс
Выходной формат : Пользовательский кодировщик
Выбранный битрейт : 768 kBit/s
Качество : Высокий
Добавление ID3-тэга : Нет
Утилита сжатия : C:\Program Files\FLAC\flac.exe
TOC извлечённого CD
Трек | Старт | Длительность | Начальный сектор | Конечный сектор
---------------------------------------------------------------------
1 | 0:00.00 | 11:12.44 | 0 | 50443
2 | 11:12.44 | 13:44.30 | 50444 | 112273
3 | 24:56.74 | 7:45.15 | 112274 | 147163
4 | 32:42.14 | 8:42.53 | 147164 | 186366
5 | 41:24.67 | 8:37.22 | 186367 | 225163
6 | 50:02.14 | 6:48.26 | 225164 | 255789
7 | 56:50.40 | 4:07.59 | 255790 | 274373
Характеристики диапазона извлечения и сообщения об ошибках
Выбранный диапазон
Имя файла C:\Documents and Settings\Admin\Рабочий стол\Ruby Braff ''I Hear Music'' (flac)\CDImage.wav
Пиковый уровень 99.6 %
Качество диапазона 100.0 %
CRC копии FE073867
Копирование... OK
Ошибок не произошло
Конец отчёта
 
TauAnalyzer
Download available for power users only.
10:56
504
Нет комментариев. Ваш будет первым!