Вы используете незарегистрированную версию компонента "Вкладки"!

Поиск

(Jazz) Stan Getz - Stan Getz with Guest Artist Laurindo Almeida - 1966, FLAC (image+.cue), lossless

(Jazz) Stan Getz - Stan Getz with Guest Artist Laurindo Almeida - 1966, FLAC (image+.cue), lossless
Треклист:
Stan Getz - Stan Getz with Guest Artist Laurindo Almeida
Жанр: Jazz
Год выпуска диска: 1966
Аудио кодек: FLAC
Тип рипа: image+.cue
Битрейт аудио: lossless
Продолжительность: 37:32
Трэклист:
1. Menina Moca (Young Lady)
2. Once Again (Outra Vez)
3. Winter Moon
4. Do What You Do, Do
5. Samba Da Sahra (Sahra's Samba)
6. Maracatu-Too
7. Corcovado
Исполнители:
Stan Getz (tenor saxophone)
Laurindo Almeida (guitar)
George Duvivier (bass)
Jose Soorez, Dave Bailey, Edison Machado (drums)
Luiz Parga, Jose Paulo (percussion)
Доп. информация: Recorded in March 1963
Отечественное переиздание диска
 
Отчет EAC
Exact Audio Copy V0.99 prebeta 4 from 23. January 2008
Отчёт EAC об извлечении, выполненном 23. ноября 2008, 13:23
Stan Getz / Stan Getz Quartet & Quintet 1950-1952
Дисковод: _NEC DVD_RW ND-4550A Adapter: 0 ID: 1
Режим чтения : Достоверность
Использование точного потока : Да
Отключение кэша аудио : Да
Использование указателей C2 : Нет
Коррекция смещения при чтении : 48
Способность читать области Lead-in и Lead-out : Нет
Заполнение пропущенных сэмплов тишиной : Да
Удаление блоков с тишиной в начале и конце : Нет
При вычислениях CRC использовались нулевые сэмплы : Да
Интерфейс : Установленный внешний ASPI-интерфейс
Выходной формат : Пользовательский кодировщик
Выбранный битрейт : 1024 kBit/s
Качество : Высокий
Добавление ID3-тэга : Нет
Утилита сжатия : E:\music\[Rip]\FLAC\flac.exe
Дополнительные параметры : -6 -V -T "ARTIST=%a" -T "TITLE=%t" -T "ALBUM=%g" -T "DATE=%y" -T "TRACKNUMBER=%n" -T "GENRE=%m" -T "COMMENT=collection georg l k." %s -o %d
TOC извлечённого CD
Трек | Старт | Длительность | Начальный сектор | Конечный сектор
---------------------------------------------------------------------
1 | 0:00.00 | 2:25.20 | 0 | 10894
2 | 2:25.20 | 3:21.57 | 10895 | 26026
3 | 5:47.02 | 2:49.68 | 26027 | 38769
4 | 8:36.70 | 2:31.57 | 38770 | 50151
5 | 11:08.52 | 3:06.40 | 50152 | 64141
6 | 14:15.17 | 3:02.63 | 64142 | 77854
7 | 17:18.05 | 3:22.15 | 77855 | 93019
8 | 20:40.20 | 2:56.00 | 93020 | 106219
9 | 23:36.20 | 3:17.00 | 106220 | 120994
10 | 26:53.20 | 2:44.32 | 120995 | 133326
11 | 29:37.52 | 2:58.18 | 133327 | 146694
12 | 32:35.70 | 2:47.17 | 146695 | 159236
13 | 35:23.12 | 3:05.63 | 159237 | 173174
14 | 38:29.00 | 2:44.72 | 173175 | 185546
15 | 41:13.72 | 2:46.48 | 185547 | 198044
16 | 44:00.45 | 3:00.52 | 198045 | 211596
17 | 47:01.22 | 2:27.65 | 211597 | 222686
18 | 49:29.12 | 2:53.35 | 222687 | 235696
19 | 52:22.47 | 2:53.58 | 235697 | 248729
20 | 55:16.30 | 2:29.37 | 248730 | 259941
21 | 57:45.67 | 2:23.38 | 259942 | 270704
22 | 60:09.30 | 2:36.32 | 270705 | 282436
23 | 62:45.62 | 2:50.53 | 282437 | 295239
24 | 65:36.40 | 2:43.40 | 295240 | 307504
Характеристики диапазона извлечения и сообщения об ошибках
Выбранный диапазон
Имя файла E:\music\Stan Getz - Stan Getz Quartet & Quintet 1950-1952 (1992)\Stan Getz - Stan Getz Quartet & Quintet 1950-1952.wav
Пиковый уровень 66.5 %
Качество диапазона 100.0 %
CRC копии AF26CA27
Копирование... OK
Ошибок не произошло
AccurateRip: сводка
Трек 1 нет в базе данных
Трек 2 нет в базе данных
Трек 3 нет в базе данных
Трек 4 нет в базе данных
Трек 5 нет в базе данных
Трек 6 нет в базе данных
Трек 7 нет в базе данных
Трек 8 нет в базе данных
Трек 9 нет в базе данных
Трек 10 нет в базе данных
Трек 11 нет в базе данных
Трек 12 нет в базе данных
Трек 13 нет в базе данных
Трек 14 нет в базе данных
Трек 15 нет в базе данных
Трек 16 нет в базе данных
Трек 17 нет в базе данных
Трек 18 нет в базе данных
Трек 19 нет в базе данных
Трек 20 нет в базе данных
Трек 21 нет в базе данных
Трек 22 нет в базе данных
Трек 23 нет в базе данных
Трек 24 нет в базе данных
Ни одного трека нет в базе AccurateRip
Конец отчёта
Any questions - support@pro-jazz.com. Есть вопросы - support@pro-jazz.com
05:12
224
Нет комментариев. Ваш будет первым!