Поиск

(jazz) Special EFX - Butterfly - 2001, APE (image + .cue), lossless

Треклист:
Special EFX - Butterfly
Страна: USA
Жанр: jazz
Год выпуска: 2001
Формат: APE (image + .cue)
Битрейт аудио: lossless
Трэклист:
01. Cruise Control [04:24]
02. Butterfly [03:50]
03. Everyone's Star [03:58]
04. Cinnamon [04:31]
05. On The Sky [04:24]
06. Two Hearts [04:15]
07. Stay A While [04:39]
08. Fantasia Blue [06:03]
09. If Only [04:59]
10. Much Too Soon [05:57]
11. For Cryin' Out Loud [04:43]
12. Katalin [05:12]
Доп. информация:
 
EAC log
Exact Audio Copy V0.99 prebeta 4 from 23. January 2008
Отчёт EAC об извлечении, выполненном 5. марта 2008, 9:35
Special EFX / Butterfly
Дисковод: Optiarc DVD RW AD-7170A Adapter: 0 ID: 0
Режим чтения : Достоверность
Использование точного потока : Да
Отключение кэша аудио : Да
Использование указателей C2 : Нет
Коррекция смещения при чтении : 48
Способность читать области Lead-in и Lead-out : Нет
Заполнение пропущенных сэмплов тишиной : Да
Удаление блоков с тишиной в начале и конце : Нет
При вычислениях CRC использовались нулевые сэмплы : Нет
Интерфейс : Установленный внешний ASPI-интерфейс
Выходной формат : Внутренние WAV-операции
Формат сэмплов : 44.100 Гц; 16 бит; стерео
TOC извлечённого CD
Трек | Старт | Длительность | Начальный сектор | Конечный сектор
---------------------------------------------------------------------
1 | 0:00.00 | 4:24.55 | 0 | 19854
2 | 4:24.55 | 3:50.25 | 19855 | 37129
3 | 8:15.05 | 3:58.25 | 37130 | 55004
4 | 12:13.30 | 4:31.50 | 55005 | 75379
5 | 16:45.05 | 4:24.12 | 75380 | 95191
6 | 21:09.17 | 4:15.70 | 95192 | 114386
7 | 25:25.12 | 4:39.30 | 114387 | 135341
8 | 30:04.42 | 6:03.00 | 135342 | 162566
9 | 36:07.42 | 4:59.50 | 162567 | 185041
10 | 41:07.17 | 5:57.23 | 185042 | 211839
11 | 47:04.40 | 4:43.70 | 211840 | 233134
12 | 51:48.35 | 5:12.45 | 233135 | 256579
Характеристики диапазона извлечения и сообщения об ошибках
Выбранный диапазон
Имя файла C:\Моя музыка\Jazz Music\Special EFX - Butterfly\Special EFX - Butterfly.wav
Пиковый уровень 98.7 %
Качество диапазона 100.0 %
CRC копии D083F87A
Копирование... OK
Ошибок не произошло
Конец отчёта
Featuring by Chieli Minucci, к сожалению Special EFX уже без G.Jinda.
Much Too Soon и Katalin - кавер-версии песен 1983 года
Chieli Minucci - guitars, keys, prog, drums, synth bass...
Jerry Brooks - bass
Lionel Cordew - drums
David Mann - sax
and other...
guests:
Roger Smith - piano, organ
Jay Beckenstein - soprano sax
Warren Hill - alto sax
and other...
Приватный:
Нет (DHT включён)
Размер:
353.21 Мб (370,367,762 байт) » файлов: 6
Участники:
0 раздают, 0 качают (0 участников всего)
Внешние участники:
--- [ Обновить ]
12:19
6
Нет комментариев. Ваш будет первым!