Поиск

(jazz) Special EFX - Body Language - 1995, APE (image + .cue), lossless

Треклист:
Special EFX - Body Language
Страна: USA
Жанр: jazz
Год выпуска: 1995
Формат: APE (image + .cue)
Битрейт аудио: lossless
Трэклист:
01. Bodybeat 05:19
02. Seduction 04:46
03. Sunset 04:31
04. Night Rhythm 05:09
05. Till We Meet Again 05:14
06. Spy Vs. Spy 04:50
07. When Love Cries 04:54
08. Papa Jinda 05:19
09. Mickey D. 04:56
10. Free 04:31
Доп. информация: label: JVC
 
EAC Log
Exact Audio Copy V0.99 prebeta 4 from 23. January 2008
Отчёт EAC об извлечении, выполненном 4. марта 2008, 17:05
Special EFX / Body Language
Дисковод: Optiarc DVD RW AD-7170A Adapter: 0 ID: 0
Режим чтения : Достоверность
Использование точного потока : Да
Отключение кэша аудио : Да
Использование указателей C2 : Нет
Комбинированное смещение чтения/записи : 0
Способность читать области Lead-in и Lead-out : Нет
Заполнение пропущенных сэмплов тишиной : Да
Удаление блоков с тишиной в начале и конце : Нет
При вычислениях CRC использовались нулевые сэмплы : Нет
Интерфейс : Установленный внешний ASPI-интерфейс
Выходной формат : Внутренние WAV-операции
Формат сэмплов : 44.100 Гц; 16 бит; стерео
TOC извлечённого CD
Трек | Старт | Длительность | Начальный сектор | Конечный сектор
---------------------------------------------------------------------
1 | 0:00.00 | 5:19.20 | 0 | 23944
2 | 5:19.20 | 4:46.57 | 23945 | 45451
3 | 10:06.02 | 4:31.48 | 45452 | 65824
4 | 14:37.50 | 5:09.17 | 65825 | 89016
5 | 19:46.67 | 5:14.55 | 89017 | 112621
6 | 25:01.47 | 4:50.53 | 112622 | 134424
7 | 29:52.25 | 4:54.07 | 134425 | 156481
8 | 34:46.32 | 5:19.33 | 156482 | 180439
9 | 40:05.65 | 4:56.12 | 180440 | 202651
10 | 45:02.02 | 4:31.68 | 202652 | 223044
Характеристики диапазона извлечения и сообщения об ошибках
Выбранный диапазон
Имя файла C:\Моя музыка\Jazz Music\Special EFX - Body Language\Special EFX - Body Language.wav
Пиковый уровень 100.0 %
Качество диапазона 99.9 %
CRC копии E8B6632F
Копирование... OK
Ошибок не произошло
Конец отчёта
В 1995г. Special EFX в "полном" составе и G. Jinda еще в строю...
Chieli Minucci - guitars
George Jinda - shakers, caxixi, cymbal swells, talkin' drum и др. (перечислять замучаешься :))
Steve Skinner - keys, prog, synth bass
Jerry Brooks - bass
Armsted Christian - vocals
и другие...
В наличии коврики...
Приватный:
Нет (DHT включён)
Размер:
315.42 Мб (330,742,187 байт) » файлов: 11
Участники:
0 раздают, 0 качают (0 участников всего)
Внешние участники:
--- [ Обновить ]
12:18
4
Нет комментариев. Ваш будет первым!