Поиск

(Jazz) Rosemary Clooney - The Buddy Cole And Nelson Riddle Sessions [REMASTERED] - 2005, FLAC (image+.cue), lossless

(Jazz) Rosemary Clooney - The Buddy Cole And Nelson Riddle Sessions [REMASTERED] - 2005, FLAC (image+.cue), lossless
Треклист:
Rosemary Clooney - The Buddy Cole And Nelson Riddle Sessions [REMASTERED]
Жанр: Jazz
Год выпуска диска: 2005
Производитель диска: Spain
Аудио кодек: FLAC
Тип рипа: image+.cue
Битрейт аудио: lossless
Продолжительность: 0:59:55
Label: Lonehill Jazz Spain
ASIN: B000AN023W
Источник рипа: Лично сам
 
Трэклист
01. 'Deed I Do [0:01:49.09]
02. You Took Advantage Of Me [0:02:22.52]
03. Blue Moon [0:02:25.72]
04. Sing You Sinners [0:02:14.27]
05. A Touch Of The Blues [0:02:40.02]
06. Goody, Goody [0:02:04.45]
07. Too Close For Comfort [0:02:39.12]
08. Do Nothin' Till You Hear From Me [0:02:47.66]
09. Moonlight Mississippi (A Whistle Stop Town) [0:02:34.53]
10. I Wish I Were In Love Again [0:02:22.16]
11. Sunday In Savannah [0:02:29.72]
12. This Can't Be Love [0:02:08.21]
13. Get Me To The Church On Time [0:02:16.27]
14. Angry [0:02:26.53]
15. I Get Along Without You Very Well [0:02:46.47]
16. How Am I To Know [0:02:54.38]
17. You Took Advantage Of Me [0:03:01.72]
18. April In Paris [0:02:43.10]
19. I Ain't Got Nobody (And Nobody Cares Fo Me) [0:02:57.38]
20. Some Of These Days [0:02:19.57]
21. By Myself [0:02:33.30]
22. Shine On Harvest Moon [0:02:22.63]
23. Cabin In The Sky [0:02:37.62]
24. Limehouse Blues [0:02:15.35]
 
Лог EAC
Exact Audio Copy V0.99 prebeta 4 from 23. January 2008
Отчёт EAC об извлечении, выполненном 9. ноября 2008, 15:16
Rosemary Clooney / The Buddy Cole And Nelson Riddle Sessions
Дисковод: PLEXTOR DVDR PX-716A Adapter: 0 ID: 1
Режим чтения : Достоверность
Использование точного потока : Да
Отключение кэша аудио : Да
Использование указателей C2 : Нет
Коррекция смещения при чтении : 30
Способность читать области Lead-in и Lead-out : Нет
Заполнение пропущенных сэмплов тишиной : Да
Удаление блоков с тишиной в начале и конце : Нет
При вычислениях CRC использовались нулевые сэмплы : Да
Интерфейс : Встроенный Win32-интерфейс для Win NT/2000
Выходной формат : Пользовательский кодировщик
Выбранный битрейт : 768 kBit/s
Качество : Высокий
Добавление ID3-тэга : Нет
Утилита сжатия : C:\Program Files\Exact Audio Copy\Flac\flac.exe
Дополнительные параметры : -8 -V -T "ARTIST=%a" -T "TITLE=%t" -T "ALBUM=%g" -T "DATE=%y" -T "TRACKNUMBER=%n" -T "GENRE=%m" -T "COMMENT=%e" %s -o %d
TOC извлечённого CD
Трек | Старт | Длительность | Начальный сектор | Конечный сектор
---------------------------------------------------------------------
1 | 0:00.00 | 1:49.09 | 0 | 8183
2 | 1:49.09 | 2:22.52 | 8184 | 18885
3 | 4:11.61 | 2:25.72 | 18886 | 29832
4 | 6:37.58 | 2:14.27 | 29833 | 39909
5 | 8:52.10 | 2:40.02 | 39910 | 51911
6 | 11:32.12 | 2:04.45 | 51912 | 61256
7 | 13:36.57 | 2:39.12 | 61257 | 73193
8 | 16:15.69 | 2:47.66 | 73194 | 85784
9 | 19:03.60 | 2:34.53 | 85785 | 97387
10 | 21:38.38 | 2:22.16 | 97388 | 108053
11 | 24:00.54 | 2:29.72 | 108054 | 119300
12 | 26:30.51 | 2:08.21 | 119301 | 128921
13 | 28:38.72 | 2:16.27 | 128922 | 139148
14 | 30:55.24 | 2:26.53 | 139149 | 150151
15 | 33:22.02 | 2:46.47 | 150152 | 162648
16 | 36:08.49 | 2:54.38 | 162649 | 175736
17 | 39:03.12 | 3:01.72 | 175737 | 189383
18 | 42:05.09 | 2:43.10 | 189384 | 201618
19 | 44:48.19 | 2:57.38 | 201619 | 214931
20 | 47:45.57 | 2:19.57 | 214932 | 225413
21 | 50:05.39 | 2:33.30 | 225414 | 236918
22 | 52:38.69 | 2:22.63 | 236919 | 247631
23 | 55:01.57 | 2:37.62 | 247632 | 259468
24 | 57:39.44 | 2:15.35 | 259469 | 269628
Характеристики диапазона извлечения и сообщения об ошибках
Выбранный диапазон
Имя файла J:\темр\Rosemary Clooney\Rosemary Clooney - The Buddy Cole And Nelson Riddle Sessions.wav
Пиковый уровень 99.4 %
Качество диапазона 100.0 %
CRC теста 84694024
CRC копии 84694024
Копирование... OK
Ошибок не произошло
AccurateRip: сводка
Трек 1 нет в базе данных
Трек 2 нет в базе данных
Трек 3 нет в базе данных
Трек 4 нет в базе данных
Трек 5 нет в базе данных
Трек 6 нет в базе данных
Трек 7 нет в базе данных
Трек 8 нет в базе данных
Трек 9 нет в базе данных
Трек 10 нет в базе данных
Трек 11 нет в базе данных
Трек 12 нет в базе данных
Трек 13 нет в базе данных
Трек 14 нет в базе данных
Трек 15 нет в базе данных
Трек 16 нет в базе данных
Трек 17 нет в базе данных
Трек 18 нет в базе данных
Трек 19 нет в базе данных
Трек 20 нет в базе данных
Трек 21 нет в базе данных
Трек 22 нет в базе данных
Трек 23 нет в базе данных
Трек 24 нет в базе данных
Ни одного трека нет в базе AccurateRip
Конец отчёта
По всем вопросам пишите личное сообщение пользователю M0p94ok.
03:04
381
Нет комментариев. Ваш будет первым!