Поиск

(Jazz-Rock, Post-Bop) Ginger Baker/DJQ20/James Carter - Coward of the County - 1999, FLAC (image+.cue), lossless

(Jazz-Rock, Post-Bop) Ginger Baker/DJQ20/James Carter - Coward of the County - 1999, FLAC (image+.cue), lossless
Треклист:
Ginger Baker/DJQ20/James Carter - Coward of the County
Жанр: Jazz-Rock, Post-Bop
Год выпуска диска: 1999
Производитель диска: Atlantic
Аудио кодек: FLAC
Тип рипа: image+.cue
Битрейт аудио: lossless
Продолжительность: 60 мин.
Трэклист:
1 Cyril Davies
2 Ginger Spice
3 Dangle the Carrot
4 Megan Showers
5 Jesus Loves Me
6 Coward of the County
7 Daylight Miles
8 Jesus, I Just Want to Go to Sleep
Доп. информация: Todd Ayers - Guitar
Ginger Baker - Stick, Drums (Snare)
James Carter - Clarinet (Bass), Sax (Baritone)
Eric Gunnison - Piano
Fred Hess - Sax (Tenor)
Ron Miles - Trumpet
Artie Moore - Bass
Shamie Royston - Organ
 
Отчет ЕАС
Exact Audio Copy V0.99 prebeta 4 from 23. January 2008
Отчёт EAC об извлечении, выполненном 27. января 2009, 23:50
Ginger Baker and the DJQ 20 / Coward Of The County
Дисковод: TSSTcorpCDDVDW TS-L632H Adapter: 2 ID: 0
Режим чтения : Достоверность
Использование точного потока : Да
Отключение кэша аудио : Да
Использование указателей C2 : Нет
Коррекция смещения при чтении : 6
Способность читать области Lead-in и Lead-out : Нет
Заполнение пропущенных сэмплов тишиной : Да
Удаление блоков с тишиной в начале и конце : Нет
При вычислениях CRC использовались нулевые сэмплы : Да
Интерфейс : Встроенный Win32-интерфейс для Win NT/2000
Выходной формат : Пользовательский кодировщик
Выбранный битрейт : 768 kBit/s
Качество : Высокий
Добавление ID3-тэга : Нет
Утилита сжатия : C:\Program Files\Exact Audio Copy\FLAC\FLAC.EXE
Дополнительные параметры : -6 -V -T "ARTIST=%a" -T "TITLE=%t" -T "ALBUM=%g" -T "DATE=%y" -T "TRACKNUMBER=%n" -T "GENRE=%m" -T "COMMENT=%e" %s -o %d
TOC извлечённого CD
Трек | Старт | Длительность | Начальный сектор | Конечный сектор
---------------------------------------------------------------------
1 | 0:00.32 | 8:49.38 | 32 | 39744
2 | 8:49.70 | 8:29.35 | 39745 | 77954
3 | 17:19.30 | 6:04.60 | 77955 | 105314
4 | 23:24.15 | 7:30.65 | 105315 | 139129
5 | 30:55.05 | 9:32.52 | 139130 | 182081
6 | 40:27.57 | 5:45.53 | 182082 | 208009
7 | 46:13.35 | 7:28.52 | 208010 | 241661
8 | 53:42.12 | 6:44.03 | 241662 | 271964
Характеристики диапазона извлечения и сообщения об ошибках
Выбранный диапазон
Имя файла F:\JAZZ\LOSSLESS\Ginger Baker - Coward Of The County\Ginger Baker and the DJQ 20 - Coward Of The County.wav
Пиковый уровень 100.0 %
Качество диапазона 100.0 %
CRC теста 70B27F29
CRC копии 70B27F29
Копирование... OK
Ошибок не произошло
Конец отчёта
Приватный:
Нет (DHT включён)
Размер:
407.18 Мб (426,958,484 байт) » файлов: 5
Участники:
0 раздают, 1 качают (1 участников всего)
Внешние участники:
3 раздают, 1 качают (4 участников всего) [ Обновить ]
Скорость:
765.05 Кб/c 0/c
For power users only: no seeders - write to support@pro-jazz.com. Для power user: нет сидеров - пишите на support@pro-jazz.com.
21:55
127
Нет комментариев. Ваш будет первым!