Поиск

(Jazz-Rock, Jazz-Funk,) [CD] Ben Sidran - Blue Camus - 2014, FLAC (tracks+.cue), lossless

(Jazz-Rock, Jazz-Funk,) [CD] Ben Sidran - Blue Camus - 2014, FLAC (tracks+.cue), lossless
Треклист:
Ben Sidran - Blue Camus Жанр: Jazz-Rock, Jazz-Funk,
Носитель: CD
Год издания: 2014
Издатель (лейбл): Bonsaï Music/Nardis
Номер по каталогу: BON141001
Аудиокодек: FLAC (*.flac)
Тип рипа: tracks+.cue
Битрейт аудио: lossless
Продолжительность: 45:09
Rip by dtromp
Наличие сканов в содержимом раздачи: да
Треклист:
01. Soso's Dream (6:58)
02. Blue Camus (4:46)
03. 'A' Is for Alligator (3:13)
04. The King of Harlem (4:57)
05. Rocky's Romance (6:21)
06. Wake Me When It's Over (4:32)
07. There Used to Be Bees (7:23)
08. Dee's Dilemma (6:58)
Personnel:
Ben Sidran - piano, Wurlitzer piano, vocals
Leo Sidran - drums
Ricky Peterson - Hammond organ
Billy Peterson - bass
with
Bob Rockwell - saxophone
Trixie Waterbed - backing vocals
 
 
Лог создания рипа
Exact Audio Copy V1.1 from 23. June 2015
EAC extraction logfile from 18. August 2015, 21:20
Ben Sidran / Blue Camus
Used drive : ATAPI iHBS112 2 Adapter: 1 ID: 0
Read mode : Secure
Utilize accurate stream : Yes
Defeat audio cache : Yes
Make use of C2 pointers : No
Read offset correction : 6
Overread into Lead-In and Lead-Out : No
Fill up missing offset samples with silence : Yes
Delete leading and trailing silent blocks : No
Null samples used in CRC calculations : Yes
Used interface : Native Win32 interface for Win NT & 2000
Gap handling : Appended to previous track
Used output format : User Defined Encoder
Selected bitrate : 1024 kBit/s
Quality : High
Add ID3 tag : No
Command line compressor : C:\Program Files\Exact Audio Copy\Flac\flac.exe
Additional command line options : -8 -V -T "ARTIST=%artist%" -T "TITLE=%title%" -T "ALBUM=%albumtitle%" -T "DATE=%year%" -T "TRACKNUMBER=%tracknr%" -T "TOTALTRACKS=%numtracks%" -T "GENRE=%genre%" -T "ALBUMARTIST=%albumartist%" -T "ALBUM ARTIST=%albumartist%" -T "COMPOSER=%composer%" -T "PERFORMER=%albuminterpret%" -T "DISCNUMBER=%cdnumber%" -T "TOTALDISCS=%totalcds%" -T "COMMENT=EAC Secure Mode, Test & Copy, AccurateRip, FLAC -8" %source%
TOC of the extracted CD
Track | Start | Length | Start sector | End sector
---------------------------------------------------------
1 | 0:00.00 | 6:58.31 | 0 | 31380
2 | 6:58.31 | 4:45.43 | 31381 | 52798
3 | 11:43.74 | 3:13.00 | 52799 | 67273
4 | 14:56.74 | 4:57.33 | 67274 | 89581
5 | 19:54.32 | 6:20.64 | 89582 | 118145
6 | 26:15.21 | 4:32.26 | 118146 | 138571
7 | 30:47.47 | 7:23.06 | 138572 | 171802
8 | 38:10.53 | 6:58.02 | 171803 | 203154
Track 1
Filename P:\DL\Ben Sidran - Blue Camus (2014) [FLAC]\01 - Soso's Dream.wav
Pre-gap length 0:00:02.00
Peak level 98.7 %
Extraction speed 5.3 X
Track quality 100.0 %
Test CRC 1D7F07A8
Copy CRC 1D7F07A8
Accurately ripped (confidence 3) [16739DAA] (AR v2)
Copy OK
Track 2
Filename P:\DL\Ben Sidran - Blue Camus (2014) [FLAC]\02 - Blue Camus.wav
Peak level 98.7 %
Extraction speed 5.9 X
Track quality 100.0 %
Test CRC B0C84FF2
Copy CRC B0C84FF2
Accurately ripped (confidence 3) [21A162E6] (AR v2)
Copy OK
Track 3
Filename P:\DL\Ben Sidran - Blue Camus (2014) [FLAC]\03 - ''A'' Is for Alligator.wav
Peak level 98.6 %
Extraction speed 6.0 X
Track quality 100.0 %
Test CRC A5FE7A4A
Copy CRC A5FE7A4A
Accurately ripped (confidence 3) [01C47E42] (AR v2)
Copy OK
Track 4
Filename P:\DL\Ben Sidran - Blue Camus (2014) [FLAC]\04 - The King of Harlem.wav
Peak level 98.7 %
Extraction speed 5.8 X
Track quality 99.9 %
Test CRC 2EAB5E24
Copy CRC 2EAB5E24
Accurately ripped (confidence 3) [D62A7BD3] (AR v2)
Copy OK
Track 5
Filename P:\DL\Ben Sidran - Blue Camus (2014) [FLAC]\05 - Rocky's Romance.wav
Peak level 98.7 %
Extraction speed 7.4 X
Track quality 100.0 %
Test CRC 660BF8DB
Copy CRC 660BF8DB
Accurately ripped (confidence 3) [AD90A655] (AR v2)
Copy OK
Track 6
Filename P:\DL\Ben Sidran - Blue Camus (2014) [FLAC]\06 - Wake Me When It's Over.wav
Peak level 98.7 %
Extraction speed 7.7 X
Track quality 100.0 %
Test CRC D3A53ADB
Copy CRC D3A53ADB
Accurately ripped (confidence 3) [A13FC882] (AR v2)
Copy OK
Track 7
Filename P:\DL\Ben Sidran - Blue Camus (2014) [FLAC]\07 - There Used to Be Bees.wav
Peak level 98.7 %
Extraction speed 8.5 X
Track quality 100.0 %
Test CRC 06568657
Copy CRC 06568657
Accurately ripped (confidence 3) [5A04E1CE] (AR v2)
Copy OK
Track 8
Filename P:\DL\Ben Sidran - Blue Camus (2014) [FLAC]\08 - Dee's Dilemma.wav
Peak level 98.7 %
Extraction speed 8.0 X
Track quality 99.9 %
Test CRC 0023B82D
Copy CRC 0023B82D
Accurately ripped (confidence 3) [94980E16] (AR v2)
Copy OK
All tracks accurately ripped
No errors occurred
End of status report
---- CUETools DB Plugin V2.1.6
[CTDB TOCID: NfwaaakO8jIb4AxbntHYPrve0yU-] found
Submit result:
Track | CTDB Status
1 | (5/5) Accurately ripped
2 | (5/5) Accurately ripped
3 | (5/5) Accurately ripped
4 | (5/5) Accurately ripped
5 | (5/5) Accurately ripped
6 | (5/5) Accurately ripped
7 | (5/5) Accurately ripped
8 | (5/5) Accurately ripped
==== Log checksum B2B106B839DB88BB7C9FAC56A8C8B325693F43EA0376FAF4462E1250DECB3926 ====
 
Содержание индексной карты (.CUE)
REM GENRE Jazz
REM DATE 2014
REM DISCID 770A9408
REM COMMENT "ExactAudioCopy v1.1"
PERFORMER "Ben Sidran"
TITLE "Blue Camus"
FILE "01 - Soso's Dream.wav" WAVE
TRACK 01 AUDIO
TITLE "Soso's Dream"
PERFORMER "Ben Sidran"
INDEX 01 00:00:00
FILE "02 - Blue Camus.wav" WAVE
TRACK 02 AUDIO
TITLE "Blue Camus"
PERFORMER "Ben Sidran"
INDEX 01 00:00:00
FILE "03 - ''A'' Is for Alligator.wav" WAVE
TRACK 03 AUDIO
TITLE "'A' Is for Alligator"
PERFORMER "Ben Sidran"
INDEX 01 00:00:00
FILE "04 - The King of Harlem.wav" WAVE
TRACK 04 AUDIO
TITLE "The King of Harlem"
PERFORMER "Ben Sidran"
INDEX 01 00:00:00
FILE "05 - Rocky's Romance.wav" WAVE
TRACK 05 AUDIO
TITLE "Rocky's Romance"
PERFORMER "Ben Sidran"
INDEX 01 00:00:00
FILE "06 - Wake Me When It's Over.wav" WAVE
TRACK 06 AUDIO
TITLE "Wake Me When It's Over"
PERFORMER "Ben Sidran"
INDEX 01 00:00:00
FILE "07 - There Used to Be Bees.wav" WAVE
TRACK 07 AUDIO
TITLE "There Used to Be Bees"
PERFORMER "Ben Sidran"
INDEX 01 00:00:00
FILE "08 - Dee's Dilemma.wav" WAVE
TRACK 08 AUDIO
TITLE "Dee's Dilemma"
PERFORMER "Ben Sidran"
INDEX 01 00:00:00
Приватный:
Нет (DHT включён)
Размер:
325.05 Мб (340,844,323 байт) » файлов: 23
Участники:
0 раздают, 0 качают (0 участников всего)
Внешние участники:
3 раздают, 1 качают (4 участников всего) [ Обновить ]
No seeders - write a personal message to user M0p94ok. Нет сидеров - пишите личное сообщение пользователю M0p94ok.
08:07
71
Нет комментариев. Ваш будет первым!