Вы используете незарегистрированную версию компонента "Вкладки"!

Поиск

(Jazz-Rock, Hard Rock) Pitom - Blasphemy and other Serious Crimes - 2011, APE (tracks+.cue), lossless

(Jazz-Rock, Hard Rock) Pitom - Blasphemy and other Serious Crimes - 2011, APE (tracks+.cue), lossless
Треклист:
Pitom / Blasphemy and other Serious Crimes
Жанр: Jazz-Rock, Hard Rock, Avant-Garde
Страна-производитель диска: US
Год издания диска: 2011
Издатель (лейбл): Tzadik
Номер по каталогу: #8158
Аудиокодек: APE (*.ape)
Тип рипа: tracks+.cue
Битрейт аудио: lossless
Продолжительность: 54:14
Источник (релизер): Aeacos Спасибо!
Наличие сканов в содержимом раздачи: да
Треклист:
1. In The Merit Of... - 4:15
2. Blasphemy And Other Serious Crimes - 7:17
3. Head In The Ground - 3:22
4. Resentful Repentance - 5:55
5. Stumbling Block - 5:02
6. Confusion Of The Heart - 2:56
7. A Crisis Of Faith - 5:13
8. Neilah - 5:19
9. An Epic Encounter - 3:58
10. Vos Zogt Ir - 4:24
11. Azazel - 6:31
 
Лог создания рипа
Exact Audio Copy V1.0 beta 3 from 29. August 2011
EAC extraction logfile from 15. December 2011, 18:38
Pitom / Blasphemy and Other Serious Crimes
Used drive : PBDS DVD+-RW DS-8W1P Adapter: 0 ID: 0
Read mode : Secure
Utilize accurate stream : Yes
Defeat audio cache : Yes
Make use of C2 pointers : No
Read offset correction : 594
Overread into Lead-In and Lead-Out : No
Fill up missing offset samples with silence : Yes
Delete leading and trailing silent blocks : No
Null samples used in CRC calculations : Yes
Used interface : Native Win32 interface for Win NT & 2000
Gap handling : Appended to previous track
Used output format : Internal WAV Routines
Sample format : 44.100 Hz; 16 Bit; Stereo
TOC of the extracted CD
Track | Start | Length | Start sector | End sector
---------------------------------------------------------
1 | 0:00.00 | 4:15.23 | 0 | 19147
2 | 4:15.23 | 7:16.70 | 19148 | 51917
3 | 11:32.18 | 3:22.15 | 51918 | 67082
4 | 14:54.33 | 5:54.71 | 67083 | 93703
5 | 20:49.29 | 5:01.58 | 93704 | 116336
6 | 25:51.12 | 2:55.46 | 116337 | 129507
7 | 28:46.58 | 5:13.41 | 129508 | 153023
8 | 34:00.24 | 5:18.62 | 153024 | 176935
9 | 39:19.11 | 3:58.33 | 176936 | 194818
10 | 43:17.44 | 4:24.03 | 194819 | 214621
11 | 47:41.47 | 6:30.72 | 214622 | 243943
Track 1
Filename F:\Upload\Pitom - Blasphemy and other Serious Crimes (2011) Lossless\01 In the Merit of ....wav
Pre-gap length 0:00:02.00
Peak level 96.6 %
Extraction speed 0.9 X
Track quality 99.9 %
Test CRC E966708A
Copy CRC E966708A
Copy OK
Track 2
Filename F:\Upload\Pitom - Blasphemy and other Serious Crimes (2011) Lossless\02 Blasphemy and Other Serious Crimes.wav
Peak level 96.6 %
Extraction speed 1.1 X
Track quality 99.9 %
Test CRC 8327F299
Copy CRC 8327F299
Copy OK
Track 3
Filename F:\Upload\Pitom - Blasphemy and other Serious Crimes (2011) Lossless\03 Head in the Ground.wav
Peak level 96.6 %
Extraction speed 1.1 X
Track quality 99.9 %
Test CRC 558D8ABE
Copy CRC 558D8ABE
Copy OK
Track 4
Filename F:\Upload\Pitom - Blasphemy and other Serious Crimes (2011) Lossless\04 Resentful Repentance.wav
Peak level 96.6 %
Extraction speed 1.4 X
Track quality 100.0 %
Test CRC 7E24A0FC
Copy CRC 7E24A0FC
Copy OK
Track 5
Filename F:\Upload\Pitom - Blasphemy and other Serious Crimes (2011) Lossless\05 Stumbling Block.wav
Peak level 96.6 %
Extraction speed 1.4 X
Track quality 99.9 %
Test CRC F3F9D66C
Copy CRC F3F9D66C
Copy OK
Track 6
Filename F:\Upload\Pitom - Blasphemy and other Serious Crimes (2011) Lossless\06 Confusion of the Heart.wav
Peak level 86.0 %
Extraction speed 1.3 X
Track quality 99.9 %
Test CRC 2865DA14
Copy CRC 2865DA14
Copy OK
Track 7
Filename F:\Upload\Pitom - Blasphemy and other Serious Crimes (2011) Lossless\07 A Crisis of Faith.wav
Peak level 96.6 %
Extraction speed 1.7 X
Track quality 100.0 %
Test CRC 46078D36
Copy CRC 46078D36
Copy OK
Track 8
Filename F:\Upload\Pitom - Blasphemy and other Serious Crimes (2011) Lossless\08 Neilah.wav
Peak level 96.6 %
Extraction speed 1.8 X
Track quality 100.0 %
Test CRC E532C082
Copy CRC E532C082
Copy OK
Track 9
Filename F:\Upload\Pitom - Blasphemy and other Serious Crimes (2011) Lossless\09 An Epic Encounter.wav
Peak level 96.6 %
Extraction speed 1.8 X
Track quality 100.0 %
Test CRC FAA1B281
Copy CRC FAA1B281
Copy OK
Track 10
Filename F:\Upload\Pitom - Blasphemy and other Serious Crimes (2011) Lossless\10 Vos Zogt Ir.wav
Peak level 96.6 %
Extraction speed 1.9 X
Track quality 100.0 %
Test CRC 4E09F5D8
Copy CRC 4E09F5D8
Copy OK
Track 11
Filename F:\Upload\Pitom - Blasphemy and other Serious Crimes (2011) Lossless\11 Azazel.wav
Peak level 96.6 %
Extraction speed 2.0 X
Track quality 100.0 %
Test CRC 889A53BC
Copy CRC 889A53BC
Copy OK
No errors occurred
End of status report
==== Log checksum 8D1D6B605CEBBD8DB700B807853CCEB0349A231879444AD3E71AB5B0D3C1FA5B ====
 
Содержание индексной карты (.CUE)
REM GENRE Avantgarde
REM DATE 2011
REM DISCID A30CB40B
REM COMMENT "ExactAudioCopy v1.0b3"
PERFORMER "Pitom"
TITLE "Blasphemy and Other Serious Crimes"
FILE "01 In the Merit of ....wav" WAVE
TRACK 01 AUDIO
TITLE "In the Merit of ..."
PERFORMER "Pitom"
INDEX 01 00:00:00
FILE "02 Blasphemy and Other Serious Crimes.wav" WAVE
TRACK 02 AUDIO
TITLE "Blasphemy and Other Serious Crimes"
PERFORMER "Pitom"
INDEX 01 00:00:00
FILE "03 Head in the Ground.wav" WAVE
TRACK 03 AUDIO
TITLE "Head in the Ground"
PERFORMER "Pitom"
INDEX 01 00:00:00
FILE "04 Resentful Repentance.wav" WAVE
TRACK 04 AUDIO
TITLE "Resentful Repentance"
PERFORMER "Pitom"
INDEX 01 00:00:00
FILE "05 Stumbling Block.wav" WAVE
TRACK 05 AUDIO
TITLE "Stumbling Block"
PERFORMER "Pitom"
INDEX 01 00:00:00
FILE "06 Confusion of the Heart.wav" WAVE
TRACK 06 AUDIO
TITLE "Confusion of the Heart"
PERFORMER "Pitom"
INDEX 01 00:00:00
FILE "07 A Crisis of Faith.wav" WAVE
TRACK 07 AUDIO
TITLE "A Crisis of Faith"
PERFORMER "Pitom"
INDEX 01 00:00:00
FILE "08 Neilah.wav" WAVE
TRACK 08 AUDIO
TITLE "Neilah"
PERFORMER "Pitom"
INDEX 01 00:00:00
FILE "09 An Epic Encounter.wav" WAVE
TRACK 09 AUDIO
TITLE "An Epic Encounter"
PERFORMER "Pitom"
INDEX 01 00:00:00
FILE "10 Vos Zogt Ir.wav" WAVE
TRACK 10 AUDIO
TITLE "Vos Zogt Ir"
PERFORMER "Pitom"
INDEX 01 00:00:00
FILE "11 Azazel.wav" WAVE
TRACK 11 AUDIO
TITLE "Azazel"
PERFORMER "Pitom"
INDEX 01 00:00:00
 
Об альбоме (сборнике)
In their second CD for Tzadik, a sonic homage to the Day of Atonement, Yoshie Fruchter and his remarkable band Pitom continue their exploration of the New Jewish rock sound with their unique blend of punk, noise rock, metal and jazz filtered through the Jewish tradition. Echoes of the Melvins, Mahavishnu, Zappa and Masada make this a fiery and soulful CD that you will listen to again and again. Intense new Jewish Music from this exciting quartet of punk rebels.
 
Состав
Shanir Ezra Blumenkranz: Bass
Yoshie Fruchter: Guitar
Kevin Zubek: Drums
Jeremy Brown: Violin, Viola
Any questions -> support@pro-jazz.com. По всем вопросам пишите -> support@pro-jazz.com
23:05
133
Нет комментариев. Ваш будет первым!