Поиск

(Jazz-Rock,Fusion) Phil Turcio/feat.Dave Weckl,Gary MeekWill Kennedy,Ric Fierabracci/ - Signals - 2008, APE (image+.cue) lossless

Треклист:
Phil Turcio/feat.Dave Weckl,Gary MeekWill Kennedy,Ric Fierabracci/ / Signals
Жанр: Jazz-Rock,Fusion
Страна-производитель диска: Russia
Год издания диска: 2008
Страна: USA
Аудио кодек: APE (*.ape)
Тип рипа: image+.cue
Битрейт аудио: lossless
Продолжительность: 00:42:23
Источник (релизер): Рип из личного архива
Наличие сканов в содержимом раздачи: да
Треклист:
1.Beyond Control
2.Lost
3.Miracles
4.Signals
5.Am l Awake
6.Solitude
7.Mystical Mojo
 
Лог создания рипа
Exact Audio Copy V0.99 prebeta 4 from 23. January 2008
Отчёт EAC об извлечении, выполненном 11. января 2011, 22:27
Phil Turcio / Signals
Дисковод: _NEC DVD_RW ND-2510A Adapter: 1 ID: 0
Режим чтения : Достоверность
Использование точного потока : Да
Отключение кэша аудио : Да
Использование указателей C2 : Нет
Коррекция смещения при чтении : 48
Способность читать области Lead-in и Lead-out : Нет
Заполнение пропущенных сэмплов тишиной : Да
Удаление блоков с тишиной в начале и конце : Нет
При вычислениях CRC использовались нулевые сэмплы : Да
Интерфейс : Встроенный Win32-интерфейс для Win NT/2000
Выходной формат : Внутренние WAV-операции
Формат сэмплов : 44.100 Гц; 16 бит; стерео
TOC извлечённого CD
Трек | Старт | Длительность | Начальный сектор | Конечный сектор
---------------------------------------------------------------------
1 | 0:00.00 | 5:08.05 | 0 | 23104
2 | 5:08.05 | 5:37.68 | 23105 | 48447
3 | 10:45.73 | 6:01.59 | 48448 | 75581
4 | 16:47.57 | 7:41.74 | 75582 | 110230
5 | 24:29.56 | 5:13.00 | 110231 | 133705
6 | 29:42.56 | 5:21.70 | 133706 | 157850
7 | 35:04.51 | 7:18.09 | 157851 | 190709
Характеристики диапазона извлечения и сообщения об ошибках
Выбранный диапазон
Имя файла E:\ПРОЕКТ\Phil Turcio-Signals 2008\Phil Turcio - Signals.wav
Пиковый уровень 99.8 %
Качество диапазона 100.0 %
CRC теста 1C6AAABD
CRC копии 1C6AAABD
Копирование... OK
Ошибок не произошло
AccurateRip: сводка
Трек 1 точное извлечение (доверие 1) [9C8D0D9F]
Трек 2 точное извлечение (доверие 1) [A41AF0F7]
Трек 3 точное извлечение (доверие 1) [16429A03]
Трек 4 точное извлечение (доверие 1) [5DE18965]
Трек 5 точное извлечение (доверие 1) [CE0BE3DF]
Трек 6 точное извлечение (доверие 1) [58575FA9]
Трек 7 точное извлечение (доверие 1) [EC872B59]
Все треки извлечены точно
Конец отчёта
 
Состав
Phil Turcio-piano,keys
Will Kennedy-drums
Craig Newman-bass
Ric Fierabracci-bass
Gary Meek-soprano sax
Dave Weckl-drums
Приватный:
Нет (DHT включён)
Размер:
283.40 Мб (297,166,896 байт) » файлов: 5
Участники:
0 раздают, 0 качают (0 участников всего)
Внешние участники:
3 раздают, 1 качают (4 участников всего) [ Обновить ]
For power users only: no seeders - write to support@pro-jazz.com. Для power user: нет сидеров - пишите на support@pro-jazz.com.
01:11
152
Нет комментариев. Ваш будет первым!