Поиск

(Jazz) Ralph Towner - Solstice / Sound And Shadows - 1977, FLAC (image + .cue), lossless

(Jazz) Ralph Towner - Solstice / Sound And Shadows - 1977, FLAC (image + .cue), lossless
Треклист:
Ralph Towner - Solstice / Sound And Shadows
Страна: USA
Жанр: Jazz
Год выпуска: 1977
Формат: FLAC (image + .cue)
Битрейт аудио: lossless
Продолжительность: 44:53
Трэклист:
1. Distant Hills
2. Balance Beam
3. Along The Way
4. Arion
5. Song Of The Shadows
Доп. информация:
Ralph Towner: 12-string and classical guitars, piano, French horn
Jan Garbarek: soprano and tenor saxophones, flute
Eberhard Weber: bass, cello
Jon Christensen: drums
Recorded February 1977
ECM 1095
 
EAC Report
Exact Audio Copy V0.99 prebeta 4 from 23. January 2008
EAC extraction logfile from 8. March 2008, 20:05
Ralph Towner / Solstice Sound And Shadows
Used drive : MATSHITADVD-RAM UJ-840S Adapter: 1 ID: 0
Read mode : Secure
Utilize accurate stream : Yes
Defeat audio cache : Yes
Make use of C2 pointers : No
Read offset correction : 102
Overread into Lead-In and Lead-Out : No
Fill up missing offset samples with silence : Yes
Delete leading and trailing silent blocks : No
Null samples used in CRC calculations : No
Used interface : Installed external ASPI interface
Used output format : User Defined Encoder
Selected bitrate : 1024 kBit/s
Quality : High
Add ID3 tag : No
Command line compressor : C:\Program Files\Exact Audio Copy\FLAC\FLAC.EXE
Additional command line options : -6 -V -T "ARTIST=%a" -T "TITLE=%t" -T "ALBUM=%g" -T "DATE=%y" -T "TRACKNUMBER=%n" -T "GENRE=%m" -T "COMMENT=%e" %s -o %d
TOC of the extracted CD
Track | Start | Length | Start sector | End sector
---------------------------------------------------------
1 | 0:00.32 | 10:46.00 | 32 | 48481
2 | 10:46.32 | 10:44.00 | 48482 | 96781
3 | 21:30.32 | 5:14.00 | 96782 | 120331
4 | 26:44.32 | 8:44.00 | 120332 | 159631
5 | 35:28.32 | 9:25.00 | 159632 | 202006
Range status and errors
Selected range
Filename F:\u\Ralph Towner\Ralph Towner - Solstice Sound And Shadows.wav
Peak level 97.4 %
Range quality 100.0 %
Copy CRC 9F5B8424
Copy OK
No errors occurred
AccurateRip summary
Track 1 accurately ripped (confidence 1) [DD6C6A41]
Track 2 accurately ripped (confidence 1) [F16F65C9]
Track 3 accurately ripped (confidence 1) [E7DDB934]
Track 4 accurately ripped (confidence 1) [CDFCF606]
Track 5 accurately ripped (confidence 1) [89A1AE28]
All tracks accurately ripped
End of status report
ТОРРЕНТ ПЕРЕЗАЛИТ 24.05.2017, 13:00 МСК.
00:30
375
Нет комментариев. Ваш будет первым!